999
DXF file: mb3237_30_50_70_M5.dxf
999
Pro/ENGINEER 2010280 by Parametric Technology Corporation
  0
SECTION
  2
HEADER
  9
$ACADVER
  1
AC1021
  9
$DWGCODEPAGE
  3
ANSI_1252
  9
$EXTMAX
 10
466.6666666667
 20
330.0
 30
0.0
  9
$EXTMIN
 10
0.0
 20
-0.0
 30
0.0
  9
$LIMMIN
 10
0.0
 20
-0.0
  9
$LIMMAX
 10
466.6666666667
 20
330.0
  9
$VIEWCTR
 10
233.3333333333
 20
165.0
  9
$VIEWSIZE
 40
330.0
  9
$CLAYER
  8
0
  9
$LTSCALE
 40
25.6666666667
  9
$CELTYPE
  6
BYLAYER
  9
$DIMSCALE
 40
1.0
  9
$DIMASZ
 40
3.8888888889
  9
$DIMEXO
 40
2.9166666667
  9
$DIMDLI
 40
17.7333333333
  9
$DIMEXE
 40
8.4
  9
$DIMCEN
 40
4.2
  9
$DIMLFAC
 40
1.0
  9
$DIMBLK
  1
_FILLED
  9
$DIMTXT
 40
2.7777777778
  9
$DIMTOL
 70
1
  9
$DIMLIM
 70
0
  9
$DIMTFAC
 40
1.0
  9
$DIMTP
 40
0.05
  9
$DIMTM
 40
0.05
  9
$PDMODE
 70
3
  9
$PDSIZE
 40
0.3125
  9
$HANDSEED
  5
40B
  9
$TILEMODE
 70
1
  9
$MEASUREMENT
 70
1
  9
$INSUNITS
 70
4
  0
ENDSEC
  0
SECTION
  2
CLASSES
  0
CLASS
  1
ACDBDICTIONARYWDFLT
  2
AcDbDictionaryWithDefault
  3
AutoCAD 2000
 90
0
 91
1
280
0
281
0
  0
CLASS
  1
ACDBPLACEHOLDER
  2
AcDbPlaceHolder
  3
AutoCAD 2000
 90
0
 91
1
280
0
281
0
  0
CLASS
  1
LAYOUT
  2
AcDbLayout
  3
AutoCAD 2000
 90
0
 91
0
280
0
281
0
  0
ENDSEC
  0
SECTION
  2
TABLES
  0
TABLE
  2
VPORT
  5
8
100
AcDbSymbolTable
 70
2
  0
VPORT
  5
1F4
100
AcDbSymbolTableRecord
100
AcDbViewportTableRecord
  2
*ACTIVE
 70
0
 10
0.0
 20
0.0
 11
1.0
 21
1.0
 12
233.3333333333
 22
165.0
 13
0.0
 23
0.0
 14
1.0
 24
1.0
 15
0.0
 25
0.0
 16
0.0
 26
0.0
 36
1.0
 17
0.0
 27
0.0
 37
0.0
 40
330.0
 41
1.4141414141
 42
50.0
 43
0.0
 44
0.0
 50
0.0
 51
0.0
 71
0
 72
100
 73
1
 74
1
 75
0
 76
0
 77
0
 78
0
  0
ENDTAB
  0
TABLE
  2
LTYPE
  5
5
100
AcDbSymbolTable
 70
6
  0
LTYPE
  5
14
100
AcDbSymbolTableRecord
100
AcDbLinetypeTableRecord
  2
BYBLOCK
 70
0
  3

 72
65
 73
0
 40
0.0
  0
LTYPE
  5
15
100
AcDbSymbolTableRecord
100
AcDbLinetypeTableRecord
  2
BYLAYER
 70
0
  3

 72
65
 73
0
 40
0.0
  0
LTYPE
  5
16
100
AcDbSymbolTableRecord
100
AcDbLinetypeTableRecord
  2
CONTINUOUS
 70
64
  3
Solid line
 72
65
 73
0
 40
0.0
  0
LTYPE
  5
1F5
100
AcDbSymbolTableRecord
100
AcDbLinetypeTableRecord
  2
CENTER
 70
64
  3
____ _ ____ _ ____ _ ____ _ ____ _ ____ _ ____
 72
65
 73
4
 40
0.6
 49
0.375
 74
0
 49
-0.075
 74
0
 49
0.075
 74
0
 49
-0.075
 74
0
  0
LTYPE
  5
1F6
100
AcDbSymbolTableRecord
100
AcDbLinetypeTableRecord
  2
HIDDEN
 70
64
  3
- - - - - - - - - - - - - - - - - - - -
 72
65
 73
2
 40
0.2
 49
0.1
 74
0
 49
-0.1
 74
0
  0
LTYPE
  5
1F7
100
AcDbSymbolTableRecord
100
AcDbLinetypeTableRecord
  2
PHANTOM
 70
64
  3
_____ _ _ _____ _ _ _____ _ _ _____
 72
65
 73
6
 40
0.8
 49
0.45
 74
0
 49
-0.05
 74
0
 49
0.1
 74
0
 49
-0.05
 74
0
 49
0.1
 74
0
 49
-0.05
 74
0
  0
LTYPE
  5
1F8
100
AcDbSymbolTableRecord
100
AcDbLinetypeTableRecord
  2
DOT
 70
64
  3
. . . . . . . . . . . . . . . . . . . .
 72
65
 73
2
 40
0.2
 49
0.1
 74
0
 49
-0.1
 74
0
  0
LTYPE
  5
1F9
100
AcDbSymbolTableRecord
100
AcDbLinetypeTableRecord
  2
DASHED
 70
64
  3
- - - - - - - - - - - - - - - - - - - -
 72
65
 73
2
 40
0.2
 49
0.1
 74
0
 49
-0.1
 74
0
  0
ENDTAB
  0
TABLE
  2
LAYER
  5
2
100
AcDbSymbolTable
 70
36
  0
LAYER
  5
10
100
AcDbSymbolTableRecord
100
AcDbLayerTableRecord
  2
0
 70
0
 62
7
  6
CONTINUOUS
370
-3
390
F
  0
LAYER
  5
1FA
100
AcDbSymbolTableRecord
100
AcDbLayerTableRecord
  2
DEFAULT_1
 70
0
 62
7
  6
CENTER
370
-3
390
F
  0
LAYER
  5
1FB
100
AcDbSymbolTableRecord
100
AcDbLayerTableRecord
  2
DEFAULT_2
 70
0
 62
8
  6
HIDDEN
370
-3
390
F
  0
LAYER
  5
1FC
100
AcDbSymbolTableRecord
100
AcDbLayerTableRecord
  2
DEFAULT_3
 70
0
 62
7
  6
PHANTOM
370
-3
390
F
  0
LAYER
  5
1FD
100
AcDbSymbolTableRecord
100
AcDbLayerTableRecord
  2
BEZUGSACHSEN
 70
0
 62
7
  6
CONTINUOUS
370
-3
390
F
  0
LAYER
  5
1FE
100
AcDbSymbolTableRecord
100
AcDbLayerTableRecord
  2
BEZUGSEBENEN
 70
0
 62
7
  6
CONTINUOUS
370
-3
390
F
  0
LAYER
  5
1FF
100
AcDbSymbolTableRecord
100
AcDbLayerTableRecord
  2
BLATT1_ANSICHT_ABTRIEB
 70
0
 62
7
  6
CONTINUOUS
370
-3
390
F
  0
LAYER
  5
200
100
AcDbSymbolTableRecord
100
AcDbLayerTableRecord
  2
BLATT1_ANSICHT_ANTRIEB
 70
0
 62
7
  6
CONTINUOUS
370
-3
390
F
  0
LAYER
  5
201
100
AcDbSymbolTableRecord
100
AcDbLayerTableRecord
  2
BLATT1_ANSICHT_MITTE
 70
0
 62
7
  6
CONTINUOUS
370
-3
390
F
  0
LAYER
  5
202
100
AcDbSymbolTableRecord
100
AcDbLayerTableRecord
  2
BLATT2_3D_ANSICHT
 70
0
 62
7
  6
CONTINUOUS
370
-3
390
F
  0
LAYER
  5
203
100
AcDbSymbolTableRecord
100
AcDbLayerTableRecord
  2
BOHRUNGEN
 70
0
 62
7
  6
CONTINUOUS
370
-3
390
F
  0
LAYER
  5
204
100
AcDbSymbolTableRecord
100
AcDbLayerTableRecord
  2
FASEN
 70
0
 62
7
  6
CONTINUOUS
370
-3
390
F
  0
LAYER
  5
205
100
AcDbSymbolTableRecord
100
AcDbLayerTableRecord
  2
GEWINDE
 70
0
 62
7
  6
CONTINUOUS
370
-3
390
F
  0
LAYER
  5
206
100
AcDbSymbolTableRecord
100
AcDbLayerTableRecord
  2
HILFEN
 70
0
 62
7
  6
CONTINUOUS
370
-3
390
F
  0
LAYER
  5
207
100
AcDbSymbolTableRecord
100
AcDbLayerTableRecord
  2
KURVEN
 70
0
 62
7
  6
CONTINUOUS
370
-3
390
F
  0
LAYER
  5
208
100
AcDbSymbolTableRecord
100
AcDbLayerTableRecord
  2
PLAZIERUNG
 70
0
 62
7
  6
CONTINUOUS
370
-3
390
F
  0
LAYER
  5
209
100
AcDbSymbolTableRecord
100
AcDbLayerTableRecord
  2
RUNDUNGEN
 70
0
 62
7
  6
CONTINUOUS
370
-3
390
F
  0
LAYER
  5
20A
100
AcDbSymbolTableRecord
100
AcDbLayerTableRecord
  2
TEIL_STARTBEZUEGE
 70
0
 62
7
  6
CONTINUOUS
370
-3
390
F
  0
LAYER
  5
20B
100
AcDbSymbolTableRecord
100
AcDbLayerTableRecord
  2
ZEICHNUNGSBEMASSUNGEN
 70
0
 62
7
  6
CONTINUOUS
370
-3
390
F
  0
ENDTAB
  0
TABLE
  2
STYLE
  5
3
100
AcDbSymbolTable
 70
1
  0
STYLE
  5
11
100
AcDbSymbolTableRecord
100
AcDbTextStyleTableRecord
  2
STANDARD
 70
0
 40
0.0
 41
0.7
 50
0.0
 71
0
 42
0.2
  3
txt
  4

  0
STYLE
  5
20C
100
AcDbSymbolTableRecord
100
AcDbTextStyleTableRecord
  2
TEXTSTYLE_1
 70
0
 40
0.0
 41
0.8
 50
0.0
 71
0
 42
0.2
  3
gdt
  4

  0
STYLE
  5
20D
100
AcDbSymbolTableRecord
100
AcDbTextStyleTableRecord
  2
TEXTSTYLE_2
 70
0
 40
0.0
 41
0.7
 50
0.0
 71
0
 42
0.2
  3
gdt
  4

  0
STYLE
  5
20E
100
AcDbSymbolTableRecord
100
AcDbTextStyleTableRecord
  2
TEXTSTYLE_3
 70
0
 40
0.0
 41
0.6
 50
0.0
 71
0
 42
0.2
  3
txt
  4

  0
ENDTAB
  0
TABLE
  2
VIEW
  5
6
100
AcDbSymbolTable
 70
0
  0
ENDTAB
  0
TABLE
  2
UCS
  5
7
100
AcDbSymbolTable
 70
0
  0
ENDTAB
  0
TABLE
  2
APPID
  5
9
100
AcDbSymbolTable
 70
1
  0
APPID
  5
20F
100
AcDbSymbolTableRecord
100
AcDbRegAppTableRecord
  2
ACAD
 70
0
  0
ENDTAB
  0
TABLE
  2
BLOCK_RECORD
  5
1
100
AcDbSymbolTable
 70
0
  0
BLOCK_RECORD
  5
210
100
AcDbSymbolTableRecord
100
AcDbBlockTableRecord
  2
*Model_Space
  0
BLOCK_RECORD
  5
211
100
AcDbSymbolTableRecord
100
AcDbBlockTableRecord
  2
*Paper_Space
  0
BLOCK_RECORD
  5
212
100
AcDbSymbolTableRecord
100
AcDbBlockTableRecord
  2
_FILLED
  0
BLOCK_RECORD
  5
213
100
AcDbSymbolTableRecord
100
AcDbBlockTableRecord
  2
_DOTBLANK
  0
BLOCK_RECORD
  5
214
100
AcDbSymbolTableRecord
100
AcDbBlockTableRecord
  2
*D0
  0
BLOCK_RECORD
  5
215
100
AcDbSymbolTableRecord
100
AcDbBlockTableRecord
  2
*D1
  0
BLOCK_RECORD
  5
216
100
AcDbSymbolTableRecord
100
AcDbBlockTableRecord
  2
*D2
  0
BLOCK_RECORD
  5
217
100
AcDbSymbolTableRecord
100
AcDbBlockTableRecord
  2
*D3
  0
BLOCK_RECORD
  5
218
100
AcDbSymbolTableRecord
100
AcDbBlockTableRecord
  2
*D4
  0
BLOCK_RECORD
  5
219
100
AcDbSymbolTableRecord
100
AcDbBlockTableRecord
  2
*D5
  0
BLOCK_RECORD
  5
21A
100
AcDbSymbolTableRecord
100
AcDbBlockTableRecord
  2
*D6
  0
BLOCK_RECORD
  5
21B
100
AcDbSymbolTableRecord
100
AcDbBlockTableRecord
  2
*D7
  0
BLOCK_RECORD
  5
21C
100
AcDbSymbolTableRecord
100
AcDbBlockTableRecord
  2
*D8
  0
BLOCK_RECORD
  5
21D
100
AcDbSymbolTableRecord
100
AcDbBlockTableRecord
  2
*D9
  0
BLOCK_RECORD
  5
21E
100
AcDbSymbolTableRecord
100
AcDbBlockTableRecord
  2
*D10
  0
BLOCK_RECORD
  5
21F
100
AcDbSymbolTableRecord
100
AcDbBlockTableRecord
  2
*D11
  0
BLOCK_RECORD
  5
220
100
AcDbSymbolTableRecord
100
AcDbBlockTableRecord
  2
*D12
  0
BLOCK_RECORD
  5
221
100
AcDbSymbolTableRecord
100
AcDbBlockTableRecord
  2
*D13
  0
BLOCK_RECORD
  5
222
100
AcDbSymbolTableRecord
100
AcDbBlockTableRecord
  2
*D14
  0
BLOCK_RECORD
  5
223
100
AcDbSymbolTableRecord
100
AcDbBlockTableRecord
  2
*D15
  0
BLOCK_RECORD
  5
224
100
AcDbSymbolTableRecord
100
AcDbBlockTableRecord
  2
*D16
  0
BLOCK_RECORD
  5
225
100
AcDbSymbolTableRecord
100
AcDbBlockTableRecord
  2
*D17
  0
BLOCK_RECORD
  5
226
100
AcDbSymbolTableRecord
100
AcDbBlockTableRecord
  2
*D18
  0
BLOCK_RECORD
  5
227
100
AcDbSymbolTableRecord
100
AcDbBlockTableRecord
  2
*D19
  0
BLOCK_RECORD
  5
228
100
AcDbSymbolTableRecord
100
AcDbBlockTableRecord
  2
*D20
  0
BLOCK_RECORD
  5
229
100
AcDbSymbolTableRecord
100
AcDbBlockTableRecord
  2
*D21
  0
BLOCK_RECORD
  5
22A
100
AcDbSymbolTableRecord
100
AcDbBlockTableRecord
  2
*D22
  0
BLOCK_RECORD
  5
22B
100
AcDbSymbolTableRecord
100
AcDbBlockTableRecord
  2
*D23
  0
BLOCK_RECORD
  5
22C
100
AcDbSymbolTableRecord
100
AcDbBlockTableRecord
  2
*D24
  0
BLOCK_RECORD
  5
22D
100
AcDbSymbolTableRecord
100
AcDbBlockTableRecord
  2
*D25
  0
ENDTAB
  0
TABLE
  2
DIMSTYLE
  5
A
100
AcDbSymbolTable
 70
1
100
AcDbDimStyleTable
 71
0
  0
DIMSTYLE
105
22E
100
AcDbSymbolTableRecord
100
AcDbDimStyleTableRecord
  2
STANDARD
 70
0
  3

  4

 40
1.0
 41
3.8888888889
 42
0.0625
 43
0.38
 44
0.18
 45
0.0
 46
0.0
 47
0.05
 48
0.05
140
2.7777777778
141
0.09
142
0.0
143
25.4
144
1.0
145
0.0
146
1.0
147
0.09
 71
1.0
 72
0.0
 73
0
 74
0
 75
0
 76
0
 77
1
 78
8
170
0
171
2
172
0
173
0
174
0
175
0
176
0
177
0
178
5
270
2
271
2
272
2
273
2
274
2
275
0
280
0
281
0
282
0
283
1
284
8
285
0
286
0
287
3
288
0
340
11
341
212
342
212
343
212
344
212
  0
DIMSTYLE
105
22F
100
AcDbSymbolTableRecord
100
AcDbDimStyleTableRecord
  2
DIMSTYLE_1
 70
0
  3

  4

 40
1.0
 41
3.8888888889
 42
0.0625
 43
0.38
 44
0.18
 45
0.0
 46
0.0
 47
0.2
 48
0.2
140
2.7777777778
141
0.09
142
0.0
143
25.4
144
1.0
145
0.0
146
1.0
147
0.09
 71
0.0
 72
0.0
 73
0
 74
0
 75
0
 76
0
 77
1
 78
8
170
0
171
2
172
0
173
0
174
0
175
0
176
0
177
0
178
5
270
2
271
3
272
3
273
2
274
2
275
0
280
0
281
0
282
0
283
1
284
8
285
0
286
0
287
3
288
0
340
11
341
212
342
212
343
212
344
212
  0
DIMSTYLE
105
230
100
AcDbSymbolTableRecord
100
AcDbDimStyleTableRecord
  2
DIMSTYLE_2
 70
0
  3

  4

 40
1.0
 41
3.8888888889
 42
0.0625
 43
0.38
 44
0.18
 45
0.0
 46
0.0
 47
0.3
 48
0.3
140
2.7777777778
141
0.09
142
0.0
143
25.4
144
1.0
145
0.0
146
1.0
147
0.09
 71
0.0
 72
0.0
 73
0
 74
0
 75
0
 76
0
 77
1
 78
8
170
0
171
2
172
0
173
0
174
0
175
0
176
0
177
0
178
5
270
2
271
3
272
3
273
2
274
2
275
0
280
0
281
0
282
0
283
1
284
8
285
0
286
0
287
3
288
0
340
11
341
212
342
212
343
212
344
212
  0
DIMSTYLE
105
231
100
AcDbSymbolTableRecord
100
AcDbDimStyleTableRecord
  2
DIMSTYLE_3
 70
0
  3

  4

 40
1.0
 41
3.8888888889
 42
0.0625
 43
0.38
 44
0.18
 45
0.0
 46
0.0
 47
0.0
 48
0.015
140
2.7777777778
141
0.09
142
0.0
143
25.4
144
1.0
145
0.0
146
1.0
147
0.09
 71
0.0
 72
0.0
 73
0
 74
0
 75
0
 76
0
 77
1
 78
8
170
0
171
2
172
0
173
0
174
0
175
0
176
0
177
0
178
5
270
2
271
3
272
3
273
2
274
2
275
0
280
0
281
0
282
0
283
1
284
8
285
0
286
0
287
3
288
0
340
11
341
212
342
212
343
212
344
212
  0
DIMSTYLE
105
232
100
AcDbSymbolTableRecord
100
AcDbDimStyleTableRecord
  2
DIMSTYLE_4
 70
0
  3

  4

 40
1.0
 41
3.8888888889
 42
0.0625
 43
0.38
 44
0.18
 45
0.0
 46
0.0
 47
0.1
 48
0.1
140
2.7777777778
141
0.09
142
0.0
143
25.4
144
1.0
145
0.0
146
1.0
147
0.09
 71
0.0
 72
0.0
 73
0
 74
0
 75
0
 76
0
 77
1
 78
8
170
0
171
2
172
0
173
0
174
0
175
0
176
0
177
0
178
5
270
2
271
3
272
3
273
2
274
2
275
0
280
0
281
0
282
0
283
1
284
8
285
0
286
0
287
3
288
0
340
11
341
212
342
212
343
212
344
212
  0
DIMSTYLE
105
233
100
AcDbSymbolTableRecord
100
AcDbDimStyleTableRecord
  2
DIMSTYLE_5
 70
0
  3

  4

 40
1.0
 41
3.8888888889
 42
0.0625
 43
0.38
 44
0.18
 45
0.0
 46
0.0
 47
0.3
 48
0.3
140
2.7777777778
141
0.09
142
0.0
143
25.4
144
1.0
145
0.0
146
1.0
147
0.09
 71
0.0
 72
0.0
 73
0
 74
0
 75
0
 76
0
 77
1
 78
8
170
0
171
2
172
0
173
0
174
0
175
0
176
0
177
0
178
5
270
2
271
3
272
3
273
2
274
2
275
0
280
0
281
0
282
0
283
1
284
8
285
0
286
0
287
3
288
0
340
11
341
212
342
212
343
212
344
212
  0
DIMSTYLE
105
234
100
AcDbSymbolTableRecord
100
AcDbDimStyleTableRecord
  2
DIMSTYLE_6
 70
0
  3

  4

 40
1.0
 41
3.8888888889
 42
0.0625
 43
0.38
 44
0.18
 45
0.0
 46
0.0
 47
0.05
 48
-0.02
140
2.7777777778
141
0.09
142
0.0
143
25.4
144
1.0
145
0.0
146
0.6
147
0.09
 71
1.0
 72
0.0
 73
0
 74
0
 75
0
 76
0
 77
1
 78
8
170
0
171
2
172
0
173
0
174
0
175
0
176
0
177
0
178
5
270
2
271
3
272
3
273
2
274
2
275
0
280
0
281
0
282
0
283
1
284
8
285
0
286
0
287
3
288
0
340
11
341
212
342
212
343
212
344
212
  0
DIMSTYLE
105
235
100
AcDbSymbolTableRecord
100
AcDbDimStyleTableRecord
  2
DIMSTYLE_7
 70
0
  3

  4

 40
1.0
 41
3.8888888889
 42
0.0625
 43
0.38
 44
0.18
 45
0.0
 46
0.0
 47
0.1
 48
0.1
140
2.7777777778
141
0.09
142
0.0
143
25.4
144
1.0
145
0.0
146
1.0
147
0.09
 71
0.0
 72
0.0
 73
0
 74
0
 75
0
 76
0
 77
1
 78
8
170
0
171
2
172
0
173
0
174
0
175
0
176
0
177
0
178
5
270
2
271
3
272
3
273
2
274
2
275
0
280
0
281
0
282
0
283
1
284
8
285
0
286
0
287
3
288
0
340
11
341
212
342
212
343
212
344
212
  0
ENDTAB
  0
ENDSEC
  0
SECTION
  2
BLOCKS
  0
BLOCK
  5
20
100
AcDbEntity
  8
0
100
AcDbBlockBegin
  2
*Model_Space
 70
0
 10
0.0
 20
0.0
 30
0.0
  3
*Model_Space
  1

  0
ENDBLK
  5
21
100
AcDbEntity
  8
0
100
AcDbBlockEnd
  0
BLOCK
  5
1C
100
AcDbEntity
  8
0
100
AcDbBlockBegin
  2
*Paper_Space
 70
0
 10
0.0
 20
0.0
 30
0.0
  3
*Paper_Space
  1

  0
ENDBLK
  5
1D
100
AcDbEntity
  8
0
100
AcDbBlockEnd
  0
BLOCK
  5
236
100
AcDbEntity
  8
0
100
AcDbBlockBegin
  2
_FILLED
 70
64
 10
0.0
 20
0.0
  3
_FILLED
  1

  0
SOLID
  5
237
100
AcDbEntity
  8
0
  6
BYBLOCK
 62
0
100
AcDbTrace
 10
0.0
 20
0.0
 11
-1.0
 21
0.125
 12
-1.0
 22
-0.125
 13
-1.0
 23
-0.125
  0
ENDBLK
  5
238
100
AcDbEntity
  8
0
  6
BYBLOCK
 62
0
100
AcDbBlockEnd
  0
BLOCK
  5
239
100
AcDbEntity
  8
0
100
AcDbBlockBegin
  2
_DOTBLANK
 70
64
 10
0.0
 20
0.0
  3
_DOTBLANK
  1

  0
CIRCLE
  5
23A
100
AcDbEntity
  8
0
  6
BYBLOCK
 62
0
100
AcDbCircle
 10
0.0
 20
0.0
 40
0.125
  0
LINE
  5
23B
100
AcDbEntity
  8
0
  6
BYBLOCK
 62
0
100
AcDbLine
 10
-1.0
 20
0.0
 11
0.0
 21
0.0
  0
ENDBLK
  5
23C
100
AcDbEntity
  8
0
  6
BYBLOCK
 62
0
100
AcDbBlockEnd
  0
BLOCK
  5
23D
100
AcDbEntity
  8
ZEICHNUNGSBEMASSUNGEN
100
AcDbBlockBegin
 62
2
  6
CONTINUOUS
  2
*D0
 70
65
 10
0.0
 20
0.0
  3
*D0
  1

  0
MTEXT
  5
23E
100
AcDbEntity
  8
ZEICHNUNGSBEMASSUNGEN
100
AcDbMText
 62
5
  6
CONTINUOUS
  7
STANDARD
 71
2
 72
1
 10
188.0648584554
 20
161.0859645006
 30
0.0
 11
1.0
 21
0.0
 31
0.0
 44
0.9
  1
30
 40
2.7777777778
 41
4.1666666667
  0
LINE
  5
23F
100
AcDbEntity
  8
ZEICHNUNGSBEMASSUNGEN
100
AcDbLine
 62
2
  6
CONTINUOUS
 10
173.0648584554
 20
179.5026311673
 11
173.0648584554
 21
155.9470756118
  0
LINE
  5
240
100
AcDbEntity
  8
ZEICHNUNGSBEMASSUNGEN
100
AcDbLine
 62
2
  6
CONTINUOUS
 10
203.0648584554
 20
202.8359645006
 11
203.0648584554
 21
155.9470756118
  0
LINE
  5
241
100
AcDbEntity
  8
ZEICHNUNGSBEMASSUNGEN
100
AcDbLine
 62
2
  6
CONTINUOUS
 10
173.0648584554
 20
157.6137422784
 11
188.0648584554
 21
157.6137422784
  0
LINE
  5
242
100
AcDbEntity
  8
ZEICHNUNGSBEMASSUNGEN
100
AcDbLine
 62
2
  6
CONTINUOUS
 10
203.0648584554
 20
157.6137422784
 11
188.0648584554
 21
157.6137422784
  0
INSERT
  5
243
100
AcDbEntity
  8
ZEICHNUNGSBEMASSUNGEN
100
AcDbBlockReference
 62
2
  6
CONTINUOUS
  2
_FILLED
 10
173.0648584554
 20
157.6137422784
 41
3.8888888889
 42
3.8888888889
 43
3.8888888889
 50
180.0
  0
INSERT
  5
244
100
AcDbEntity
  8
ZEICHNUNGSBEMASSUNGEN
100
AcDbBlockReference
 62
2
  6
CONTINUOUS
  2
_FILLED
 10
203.0648584554
 20
157.6137422784
 41
3.8888888889
 42
3.8888888889
 43
3.8888888889
  0
ENDBLK
  5
245
100
AcDbEntity
  8
0
  6
BYBLOCK
 62
0
100
AcDbBlockEnd
  0
BLOCK
  5
246
100
AcDbEntity
  8
ZEICHNUNGSBEMASSUNGEN
100
AcDbBlockBegin
 62
2
  6
CONTINUOUS
  2
*D1
 70
65
 10
0.0
 20
0.0
  3
*D1
  1

  0
MTEXT
  5
247
100
AcDbEntity
  8
ZEICHNUNGSBEMASSUNGEN
100
AcDbMText
 62
5
  6
CONTINUOUS
  7
STANDARD
 71
2
 72
1
 10
232.0648584554
 20
291.0859645006
 30
0.0
 11
1.0
 21
0.0
 31
0.0
 44
0.9
  1
118
 40
2.7777777778
 41
5.3571428571
  0
LINE
  5
248
100
AcDbEntity
  8
ZEICHNUNGSBEMASSUNGEN
100
AcDbLine
 62
2
  6
CONTINUOUS
 10
173.0648584554
 20
241.2804089451
 11
173.0648584554
 21
289.2804089451
  0
LINE
  5
249
100
AcDbEntity
  8
ZEICHNUNGSBEMASSUNGEN
100
AcDbLine
 62
2
  6
CONTINUOUS
 10
291.0648584554
 20
218.9470756118
 11
291.0648584554
 21
289.2804089451
  0
LINE
  5
24A
100
AcDbEntity
  8
ZEICHNUNGSBEMASSUNGEN
100
AcDbLine
 62
2
  6
CONTINUOUS
 10
173.0648584554
 20
287.6137422784
 11
232.0648584554
 21
287.6137422784
  0
LINE
  5
24B
100
AcDbEntity
  8
ZEICHNUNGSBEMASSUNGEN
100
AcDbLine
 62
2
  6
CONTINUOUS
 10
291.0648584554
 20
287.6137422784
 11
232.0648584554
 21
287.6137422784
  0
INSERT
  5
24C
100
AcDbEntity
  8
ZEICHNUNGSBEMASSUNGEN
100
AcDbBlockReference
 62
2
  6
CONTINUOUS
  2
_FILLED
 10
173.0648584554
 20
287.6137422784
 41
3.8888888889
 42
3.8888888889
 43
3.8888888889
 50
180.0
  0
INSERT
  5
24D
100
AcDbEntity
  8
ZEICHNUNGSBEMASSUNGEN
100
AcDbBlockReference
 62
2
  6
CONTINUOUS
  2
_FILLED
 10
291.0648584554
 20
287.6137422784
 41
3.8888888889
 42
3.8888888889
 43
3.8888888889
  0
ENDBLK
  5
24E
100
AcDbEntity
  8
0
  6
BYBLOCK
 62
0
100
AcDbBlockEnd
  0
BLOCK
  5
24F
100
AcDbEntity
  8
ZEICHNUNGSBEMASSUNGEN
100
AcDbBlockBegin
 62
2
  6
CONTINUOUS
  2
*D2
 70
65
 10
0.0
 20
0.0
  3
*D2
  1

  0
MTEXT
  5
250
100
AcDbEntity
  8
ZEICHNUNGSBEMASSUNGEN
100
AcDbMText
 62
5
  6
CONTINUOUS
  7
STANDARD
 71
2
 72
1
 10
188.5648584554
 20
279.9748533895
 30
0.0
 11
1.0
 21
0.0
 31
0.0
 44
0.9
  1
31
 40
2.7777777778
 41
3.5714285714
  0
LINE
  5
251
100
AcDbEntity
  8
ZEICHNUNGSBEMASSUNGEN
100
AcDbLine
 62
2
  6
CONTINUOUS
 10
173.0648584554
 20
238.5156998335
 11
173.0648584554
 21
278.169297834
  0
LINE
  5
252
100
AcDbEntity
  8
ZEICHNUNGSBEMASSUNGEN
100
AcDbLine
 62
2
  6
CONTINUOUS
 10
204.0648584554
 20
238.5156998335
 11
204.0648584554
 21
278.169297834
  0
LINE
  5
253
100
AcDbEntity
  8
ZEICHNUNGSBEMASSUNGEN
100
AcDbLine
 62
2
  6
CONTINUOUS
 10
173.0648584554
 20
276.5026311673
 11
188.5648584554
 21
276.5026311673
  0
LINE
  5
254
100
AcDbEntity
  8
ZEICHNUNGSBEMASSUNGEN
100
AcDbLine
 62
2
  6
CONTINUOUS
 10
204.0648584554
 20
276.5026311673
 11
188.5648584554
 21
276.5026311673
  0
INSERT
  5
255
100
AcDbEntity
  8
ZEICHNUNGSBEMASSUNGEN
100
AcDbBlockReference
 62
2
  6
CONTINUOUS
  2
_FILLED
 10
173.0648584554
 20
276.5026311673
 41
3.8888888889
 42
3.8888888889
 43
3.8888888889
 50
180.0
  0
INSERT
  5
256
100
AcDbEntity
  8
ZEICHNUNGSBEMASSUNGEN
100
AcDbBlockReference
 62
2
  6
CONTINUOUS
  2
_FILLED
 10
204.0648584554
 20
276.5026311673
 41
3.8888888889
 42
3.8888888889
 43
3.8888888889
  0
ENDBLK
  5
257
100
AcDbEntity
  8
0
  6
BYBLOCK
 62
0
100
AcDbBlockEnd
  0
BLOCK
  5
258
100
AcDbEntity
  8
ZEICHNUNGSBEMASSUNGEN
100
AcDbBlockBegin
 62
2
  6
CONTINUOUS
  2
*D3
 70
65
 10
0.0
 20
0.0
  3
*D3
  1

  0
MTEXT
  5
259
100
AcDbEntity
  8
ZEICHNUNGSBEMASSUNGEN
100
AcDbMText
 62
5
  6
CONTINUOUS
  7
STANDARD
 71
2
 72
1
 10
273.0648584554
 20
279.9748533895
 30
0.0
 11
1.0
 21
0.0
 31
0.0
 44
0.9
  1
36
 40
2.7777777778
 41
4.1666666667
  0
LINE
  5
25A
100
AcDbEntity
  8
ZEICHNUNGSBEMASSUNGEN
100
AcDbLine
 62
2
  6
CONTINUOUS
 10
255.0648584554
 20
245.9470756118
 11
255.0648584554
 21
278.169297834
  0
LINE
  5
25B
100
AcDbEntity
  8
ZEICHNUNGSBEMASSUNGEN
100
AcDbLine
 62
2
  6
CONTINUOUS
 10
291.0648584554
 20
219.5581867229
 11
291.0648584554
 21
278.169297834
  0
LINE
  5
25C
100
AcDbEntity
  8
ZEICHNUNGSBEMASSUNGEN
100
AcDbLine
 62
2
  6
CONTINUOUS
 10
255.0648584554
 20
276.5026311673
 11
273.0648584554
 21
276.5026311673
  0
LINE
  5
25D
100
AcDbEntity
  8
ZEICHNUNGSBEMASSUNGEN
100
AcDbLine
 62
2
  6
CONTINUOUS
 10
291.0648584554
 20
276.5026311673
 11
273.0648584554
 21
276.5026311673
  0
INSERT
  5
25E
100
AcDbEntity
  8
ZEICHNUNGSBEMASSUNGEN
100
AcDbBlockReference
 62
2
  6
CONTINUOUS
  2
_FILLED
 10
255.0648584554
 20
276.5026311673
 41
3.8888888889
 42
3.8888888889
 43
3.8888888889
 50
180.0
  0
INSERT
  5
25F
100
AcDbEntity
  8
ZEICHNUNGSBEMASSUNGEN
100
AcDbBlockReference
 62
2
  6
CONTINUOUS
  2
_FILLED
 10
291.0648584554
 20
276.5026311673
 41
3.8888888889
 42
3.8888888889
 43
3.8888888889
  0
ENDBLK
  5
260
100
AcDbEntity
  8
0
  6
BYBLOCK
 62
0
100
AcDbBlockEnd
  0
BLOCK
  5
261
100
AcDbEntity
  8
0
100
AcDbBlockBegin
 62
2
  6
CONTINUOUS
  2
*D4
 70
65
 10
0.0
 20
0.0
  3
*D4
  1

  0
MTEXT
  5
262
100
AcDbEntity
  8
0
100
AcDbMText
 62
5
  6
CONTINUOUS
  7
TEXTSTYLE_2
 71
3
 72
1
 10
300.9259695666
 20
171.5026311673
 30
0.0
 11
0.0
 21
1.0
 31
0.0
 44
0.9
  1
{\Fgdt;n}\Ftxt;16
 40
2.7777777778
 41
7.4735449735
  0
LINE
  5
263
100
AcDbEntity
  8
0
100
AcDbLine
 62
2
  6
CONTINUOUS
 10
291.620414011
 20
218.3915200562
 11
306.0648584554
 21
218.3915200562
  0
LINE
  5
264
100
AcDbEntity
  8
0
100
AcDbLine
 62
2
  6
CONTINUOUS
 10
291.620414011
 20
202.3915200562
 11
306.0648584554
 21
202.3915200562
  0
LINE
  5
265
100
AcDbEntity
  8
0
100
AcDbLine
 62
2
  6
CONTINUOUS
 10
304.3981917888
 20
218.3915200562
 11
304.3981917888
 21
210.3915200562
  0
LINE
  5
266
100
AcDbEntity
  8
0
100
AcDbLine
 62
2
  6
CONTINUOUS
 10
304.3981917888
 20
202.3915200562
 11
304.3981917888
 21
210.3915200562
  0
LINE
  5
267
100
AcDbEntity
  8
0
100
AcDbLine
 62
2
  6
CONTINUOUS
 10
304.3981917888
 20
210.3915200562
 11
304.3981917888
 21
164.0290861938
  0
INSERT
  5
268
100
AcDbEntity
  8
0
100
AcDbBlockReference
 62
2
  6
CONTINUOUS
  2
_FILLED
 10
304.3981917888
 20
218.3915200562
 41
3.8888888889
 42
3.8888888889
 43
3.8888888889
 50
90.0
  0
INSERT
  5
269
100
AcDbEntity
  8
0
100
AcDbBlockReference
 62
2
  6
CONTINUOUS
  2
_FILLED
 10
304.3981917888
 20
202.3915200562
 41
3.8888888889
 42
3.8888888889
 43
3.8888888889
 50
270.0
  0
ENDBLK
  5
26A
100
AcDbEntity
  8
0
  6
BYBLOCK
 62
0
100
AcDbBlockEnd
  0
BLOCK
  5
26B
100
AcDbEntity
  8
0
100
AcDbBlockBegin
 62
2
  6
CONTINUOUS
  2
*D5
 70
65
 10
0.0
 20
0.0
  3
*D5
  1

  0
MTEXT
  5
26C
100
AcDbEntity
  8
0
100
AcDbMText
 62
5
  6
CONTINUOUS
  7
STANDARD
 71
2
 72
1
 10
277.0648584554
 20
264.419297834
 30
0.0
 11
1.0
 21
0.0
 31
0.0
 44
0.9
  1
28
 40
2.7777777778
 41
4.3650793651
  0
LINE
  5
26D
100
AcDbEntity
  8
0
100
AcDbLine
 62
2
  6
CONTINUOUS
 10
291.0648584554
 20
218.9470756118
 11
291.0648584554
 21
262.6137422784
  0
LINE
  5
26E
100
AcDbEntity
  8
0
100
AcDbLine
 62
2
  6
CONTINUOUS
 10
263.0648584554
 20
225.9470756118
 11
263.0648584554
 21
262.6137422784
  0
LINE
  5
26F
100
AcDbEntity
  8
0
100
AcDbLine
 62
2
  6
CONTINUOUS
 10
291.0648584554
 20
260.9470756118
 11
277.0648584554
 21
260.9470756118
  0
LINE
  5
270
100
AcDbEntity
  8
0
100
AcDbLine
 62
2
  6
CONTINUOUS
 10
263.0648584554
 20
260.9470756118
 11
277.0648584554
 21
260.9470756118
  0
INSERT
  5
271
100
AcDbEntity
  8
0
100
AcDbBlockReference
 62
2
  6
CONTINUOUS
  2
_FILLED
 10
291.0648584554
 20
260.9470756118
 41
3.8888888889
 42
3.8888888889
 43
3.8888888889
  0
INSERT
  5
272
100
AcDbEntity
  8
0
100
AcDbBlockReference
 62
2
  6
CONTINUOUS
  2
_FILLED
 10
263.0648584554
 20
260.9470756118
 41
3.8888888889
 42
3.8888888889
 43
3.8888888889
 50
180.0
  0
ENDBLK
  5
273
100
AcDbEntity
  8
0
  6
BYBLOCK
 62
0
100
AcDbBlockEnd
  0
BLOCK
  5
274
100
AcDbEntity
  8
0
100
AcDbBlockBegin
 62
2
  6
CONTINUOUS
  2
*D6
 70
65
 10
0.0
 20
0.0
  3
*D6
  1

  0
MTEXT
  5
275
100
AcDbEntity
  8
0
100
AcDbMText
 62
5
  6
CONTINUOUS
  7
TEXTSTYLE_2
 71
2
 72
1
 10
310.9259695666
 20
210.3915200562
 30
0.0
 11
0.0
 21
1.0
 31
0.0
 44
0.9
  1
{\Fgdt;n}\Ftxt;30
 40
2.7777777778
 41
7.8703703704
  0
LINE
  5
276
100
AcDbEntity
  8
0
100
AcDbLine
 62
2
  6
CONTINUOUS
 10
263.620414011
 20
225.3915200562
 11
316.0648584554
 21
225.3915200562
  0
LINE
  5
277
100
AcDbEntity
  8
0
100
AcDbLine
 62
2
  6
CONTINUOUS
 10
263.620414011
 20
195.3915200562
 11
316.0648584554
 21
195.3915200562
  0
LINE
  5
278
100
AcDbEntity
  8
0
100
AcDbLine
 62
2
  6
CONTINUOUS
 10
314.3981917888
 20
225.3915200562
 11
314.3981917888
 21
210.3915200562
  0
LINE
  5
279
100
AcDbEntity
  8
0
100
AcDbLine
 62
2
  6
CONTINUOUS
 10
314.3981917888
 20
195.3915200562
 11
314.3981917888
 21
210.3915200562
  0
INSERT
  5
27A
100
AcDbEntity
  8
0
100
AcDbBlockReference
 62
2
  6
CONTINUOUS
  2
_FILLED
 10
314.3981917888
 20
225.3915200562
 41
3.8888888889
 42
3.8888888889
 43
3.8888888889
 50
90.0
  0
INSERT
  5
27B
100
AcDbEntity
  8
0
100
AcDbBlockReference
 62
2
  6
CONTINUOUS
  2
_FILLED
 10
314.3981917888
 20
195.3915200562
 41
3.8888888889
 42
3.8888888889
 43
3.8888888889
 50
270.0
  0
ENDBLK
  5
27C
100
AcDbEntity
  8
0
  6
BYBLOCK
 62
0
100
AcDbBlockEnd
  0
BLOCK
  5
27D
100
AcDbEntity
  8
0
100
AcDbBlockBegin
 62
2
  6
CONTINUOUS
  2
*D7
 70
65
 10
0.0
 20
0.0
  3
*D7
  1

  0
MTEXT
  5
27E
100
AcDbEntity
  8
0
100
AcDbMText
 62
5
  6
CONTINUOUS
  7
STANDARD
 71
2
 72
1
 10
25.1727793782
 20
211.3915200562
 30
0.0
 11
0.0
 21
1.0
 31
0.0
 44
0.9
  1
18
 40
2.7777777778
 41
3.7698412698
  0
LINE
  5
27F
100
AcDbEntity
  8
0
100
AcDbLine
 62
2
  6
CONTINUOUS
 10
71.700557156
 20
220.3915200562
 11
26.9783349337
 21
220.3915200562
  0
LINE
  5
280
100
AcDbEntity
  8
0
100
AcDbLine
 62
2
  6
CONTINUOUS
 10
73.7111764178
 20
202.3915200562
 11
26.9783349337
 21
202.3915200562
  0
LINE
  5
281
100
AcDbEntity
  8
0
100
AcDbLine
 62
2
  6
CONTINUOUS
 10
28.6450016004
 20
220.3915200562
 11
28.6450016004
 21
211.3915200562
  0
LINE
  5
282
100
AcDbEntity
  8
0
100
AcDbLine
 62
2
  6
CONTINUOUS
 10
28.6450016004
 20
202.3915200562
 11
28.6450016004
 21
211.3915200562
  0
INSERT
  5
283
100
AcDbEntity
  8
0
100
AcDbBlockReference
 62
2
  6
CONTINUOUS
  2
_FILLED
 10
28.6450016004
 20
220.3915200562
 41
3.8888888889
 42
3.8888888889
 43
3.8888888889
 50
90.0
  0
INSERT
  5
284
100
AcDbEntity
  8
0
100
AcDbBlockReference
 62
2
  6
CONTINUOUS
  2
_FILLED
 10
28.6450016004
 20
202.3915200562
 41
3.8888888889
 42
3.8888888889
 43
3.8888888889
 50
270.0
  0
ENDBLK
  5
285
100
AcDbEntity
  8
0
  6
BYBLOCK
 62
0
100
AcDbBlockEnd
  0
BLOCK
  5
286
100
AcDbEntity
  8
0
100
AcDbBlockBegin
 62
2
  6
CONTINUOUS
  2
*D8
 70
65
 10
0.0
 20
0.0
  3
*D8
  1

  0
MTEXT
  5
287
100
AcDbEntity
  8
0
100
AcDbMText
 62
5
  6
CONTINUOUS
  7
STANDARD
 71
2
 72
1
 10
276.5648584554
 20
251.0859645006
 30
0.0
 11
1.0
 21
0.0
 31
0.0
 44
0.9
  1
25
 40
2.7777777778
 41
4.1666666667
  0
LINE
  5
288
100
AcDbEntity
  8
0
100
AcDbLine
 62
2
  6
CONTINUOUS
 10
264.0648584554
 20
220.9470756118
 11
264.0648584554
 21
249.2804089451
  0
LINE
  5
289
100
AcDbEntity
  8
0
100
AcDbLine
 62
2
  6
CONTINUOUS
 10
289.0648584554
 20
220.9470756118
 11
289.0648584554
 21
249.2804089451
  0
LINE
  5
28A
100
AcDbEntity
  8
0
100
AcDbLine
 62
2
  6
CONTINUOUS
 10
264.0648584554
 20
247.6137422784
 11
276.5648584554
 21
247.6137422784
  0
LINE
  5
28B
100
AcDbEntity
  8
0
100
AcDbLine
 62
2
  6
CONTINUOUS
 10
289.0648584554
 20
247.6137422784
 11
276.5648584554
 21
247.6137422784
  0
INSERT
  5
28C
100
AcDbEntity
  8
0
100
AcDbBlockReference
 62
2
  6
CONTINUOUS
  2
_FILLED
 10
264.0648584554
 20
247.6137422784
 41
3.8888888889
 42
3.8888888889
 43
3.8888888889
 50
180.0
  0
INSERT
  5
28D
100
AcDbEntity
  8
0
100
AcDbBlockReference
 62
2
  6
CONTINUOUS
  2
_FILLED
 10
289.0648584554
 20
247.6137422784
 41
3.8888888889
 42
3.8888888889
 43
3.8888888889
  0
ENDBLK
  5
28E
100
AcDbEntity
  8
0
  6
BYBLOCK
 62
0
100
AcDbBlockEnd
  0
BLOCK
  5
28F
100
AcDbEntity
  8
0
100
AcDbBlockBegin
 62
2
  6
CONTINUOUS
  2
*D9
 70
65
 10
0.0
 20
0.0
  3
*D9
  1

  0
MTEXT
  5
290
100
AcDbEntity
  8
0
100
AcDbMText
 62
5
  6
CONTINUOUS
  7
STANDARD
 71
1
 72
1
 10
304.3981917888
 20
257.7526311673
 30
0.0
 11
1.0
 21
0.0
 31
0.0
 44
0.9
  1
2
 40
2.7777777778
 41
2.1825396825
  0
LINE
  5
291
100
AcDbEntity
  8
0
100
AcDbLine
 62
2
  6
CONTINUOUS
 10
291.0648584554
 20
218.9470756118
 11
291.0648584554
 21
255.9470756118
  0
LINE
  5
292
100
AcDbEntity
  8
0
100
AcDbLine
 62
2
  6
CONTINUOUS
 10
289.0648584554
 20
220.9470756118
 11
289.0648584554
 21
255.9470756118
  0
LINE
  5
293
100
AcDbEntity
  8
0
100
AcDbLine
 62
2
  6
CONTINUOUS
 10
291.0648584554
 20
254.2804089451
 11
306.5807314713
 21
254.2804089451
  0
LINE
  5
294
100
AcDbEntity
  8
0
100
AcDbLine
 62
2
  6
CONTINUOUS
 10
306.5807314713
 20
254.2804089451
 11
290.0648584554
 21
254.2804089451
  0
LINE
  5
295
100
AcDbEntity
  8
0
100
AcDbLine
 62
2
  6
CONTINUOUS
 10
289.0648584554
 20
254.2804089451
 11
282.3981917888
 21
254.2804089451
  0
LINE
  5
296
100
AcDbEntity
  8
0
100
AcDbLine
 62
2
  6
CONTINUOUS
 10
282.3981917888
 20
254.2804089451
 11
290.0648584554
 21
254.2804089451
  0
INSERT
  5
297
100
AcDbEntity
  8
0
100
AcDbBlockReference
 62
2
  6
CONTINUOUS
  2
_FILLED
 10
291.0648584554
 20
254.2804089451
 41
3.8888888889
 42
3.8888888889
 43
3.8888888889
 50
180.0
  0
INSERT
  5
298
100
AcDbEntity
  8
0
100
AcDbBlockReference
 62
2
  6
CONTINUOUS
  2
_FILLED
 10
289.0648584554
 20
254.2804089451
 41
3.8888888889
 42
3.8888888889
 43
3.8888888889
  0
ENDBLK
  5
299
100
AcDbEntity
  8
0
  6
BYBLOCK
 62
0
100
AcDbBlockEnd
  0
BLOCK
  5
29A
100
AcDbEntity
  8
0
100
AcDbBlockBegin
 62
2
  6
CONTINUOUS
  2
*D10
 70
65
 10
0.0
 20
0.0
  3
*D10
  1

  0
MTEXT
  5
29B
100
AcDbEntity
  8
0
100
AcDbMText
 62
5
  6
CONTINUOUS
  7
STANDARD
 71
2
 72
1
 10
74.7561127115
 20
257.7526311673
 30
0.0
 11
1.0
 21
0.0
 31
0.0
 44
0.9
  1
5
 40
2.7777777778
 41
1.9841269841
  0
LINE
  5
29C
100
AcDbEntity
  8
0
100
AcDbLine
 62
2
  6
CONTINUOUS
 10
77.2561127115
 20
220.9470756118
 11
77.2561127115
 21
255.9470756118
  0
LINE
  5
29D
100
AcDbEntity
  8
0
100
AcDbLine
 62
2
  6
CONTINUOUS
 10
72.2561127115
 20
220.9470756118
 11
72.2561127115
 21
255.9470756118
  0
LINE
  5
29E
100
AcDbEntity
  8
0
100
AcDbLine
 62
2
  6
CONTINUOUS
 10
77.2561127115
 20
254.2804089451
 11
83.9227793782
 21
254.2804089451
  0
LINE
  5
29F
100
AcDbEntity
  8
0
100
AcDbLine
 62
2
  6
CONTINUOUS
 10
83.9227793782
 20
254.2804089451
 11
74.7561127115
 21
254.2804089451
  0
LINE
  5
2A0
100
AcDbEntity
  8
0
100
AcDbLine
 62
2
  6
CONTINUOUS
 10
72.2561127115
 20
254.2804089451
 11
65.5894460448
 21
254.2804089451
  0
LINE
  5
2A1
100
AcDbEntity
  8
0
100
AcDbLine
 62
2
  6
CONTINUOUS
 10
65.5894460448
 20
254.2804089451
 11
74.7561127115
 21
254.2804089451
  0
INSERT
  5
2A2
100
AcDbEntity
  8
0
100
AcDbBlockReference
 62
2
  6
CONTINUOUS
  2
_FILLED
 10
77.2561127115
 20
254.2804089451
 41
3.8888888889
 42
3.8888888889
 43
3.8888888889
 50
180.0
  0
INSERT
  5
2A3
100
AcDbEntity
  8
0
100
AcDbBlockReference
 62
2
  6
CONTINUOUS
  2
_FILLED
 10
72.2561127115
 20
254.2804089451
 41
3.8888888889
 42
3.8888888889
 43
3.8888888889
  0
ENDBLK
  5
2A4
100
AcDbEntity
  8
0
  6
BYBLOCK
 62
0
100
AcDbBlockEnd
  0
BLOCK
  5
2A5
100
AcDbEntity
  8
0
100
AcDbBlockBegin
 62
2
  6
CONTINUOUS
  2
*D11
 70
65
 10
0.0
 20
0.0
  3
*D11
  1

  0
MTEXT
  5
2A6
100
AcDbEntity
  8
0
100
AcDbMText
 62
5
  6
CONTINUOUS
  7
TEXTSTYLE_2
 71
2
 72
1
 10
396.4809257763
 20
273.3081867229
 30
0.0
 11
1.0
 21
0.0
 31
0.0
 44
0.9
  1
{\Fgdt;o}\Ftxt;60
 40
2.7777777778
 41
8.1845238095
  0
LINE
  5
2A7
100
AcDbEntity
  8
0
100
AcDbLine
 62
2
  6
CONTINUOUS
 10
366.4809257763
 20
238.7248533895
 11
366.4809257763
 21
271.5026311673
  0
LINE
  5
2A8
100
AcDbEntity
  8
0
100
AcDbLine
 62
2
  6
CONTINUOUS
 10
426.4809257763
 20
238.7248533895
 11
426.4809257763
 21
271.5026311673
  0
LINE
  5
2A9
100
AcDbEntity
  8
0
100
AcDbLine
 62
2
  6
CONTINUOUS
 10
366.4809257763
 20
269.8359645006
 11
396.4809257763
 21
269.8359645006
  0
LINE
  5
2AA
100
AcDbEntity
  8
0
100
AcDbLine
 62
2
  6
CONTINUOUS
 10
426.4809257763
 20
269.8359645006
 11
396.4809257763
 21
269.8359645006
  0
INSERT
  5
2AB
100
AcDbEntity
  8
0
100
AcDbBlockReference
 62
2
  6
CONTINUOUS
  2
_FILLED
 10
366.4809257763
 20
269.8359645006
 41
3.8888888889
 42
3.8888888889
 43
3.8888888889
 50
180.0
  0
INSERT
  5
2AC
100
AcDbEntity
  8
0
100
AcDbBlockReference
 62
2
  6
CONTINUOUS
  2
_FILLED
 10
426.4809257763
 20
269.8359645006
 41
3.8888888889
 42
3.8888888889
 43
3.8888888889
  0
ENDBLK
  5
2AD
100
AcDbEntity
  8
0
  6
BYBLOCK
 62
0
100
AcDbBlockEnd
  0
BLOCK
  5
2AE
100
AcDbEntity
  8
0
100
AcDbBlockBegin
 62
2
  6
CONTINUOUS
  2
*D12
 70
65
 10
0.0
 20
0.0
  3
*D12
  1

  0
MTEXT
  5
2AF
100
AcDbEntity
  8
0
100
AcDbMText
 62
5
  6
CONTINUOUS
  7
TEXTSTYLE_2
 71
1
 72
1
 10
434.1653358577
 20
253.1752549665
 30
0.0
 11
0.7054453572
 21
0.7087643106
 31
0.0
 44
0.9
  1
{\Fgdt;n}\Ftxt;80 
 40
2.7777777778
 41
10.2513227513
  0
LINE
  5
2B0
100
AcDbEntity
  8
0
100
AcDbLine
 62
2
  6
CONTINUOUS
 10
424.6987400635
 20
238.7420924816
 11
396.4809257763
 21
210.3915200562
  0
LINE
  5
2B1
100
AcDbEntity
  8
0
100
AcDbLine
 62
2
  6
CONTINUOUS
 10
396.4809257763
 20
210.3915200562
 11
443.8580710873
 21
257.9915636237
  0
LINE
  5
2B2
100
AcDbEntity
  8
0
100
AcDbLine
 62
2
  6
CONTINUOUS
 10
368.263111489
 20
182.0409476308
 11
396.4809257763
 21
210.3915200562
  0
INSERT
  5
2B3
100
AcDbEntity
  8
0
100
AcDbBlockReference
 62
2
  6
CONTINUOUS
  2
_FILLED
 10
424.6987400635
 20
238.7420924816
 41
3.8888888889
 42
3.8888888889
 43
3.8888888889
 50
45.1344649811
  0
INSERT
  5
2B4
100
AcDbEntity
  8
0
100
AcDbBlockReference
 62
2
  6
CONTINUOUS
  2
_FILLED
 10
368.263111489
 20
182.0409476308
 41
3.8888888889
 42
3.8888888889
 43
3.8888888889
 50
225.1344649811
  0
ENDBLK
  5
2B5
100
AcDbEntity
  8
0
  6
BYBLOCK
 62
0
100
AcDbBlockEnd
  0
BLOCK
  5
2B6
100
AcDbEntity
  8
0
100
AcDbBlockBegin
 62
2
  6
CONTINUOUS
  2
*D13
 70
65
 10
0.0
 20
0.0
  3
*D13
  1

  0
TEXT
  5
2B7
100
AcDbEntity
  8
0
100
AcDbText
 62
5
  6
CONTINUOUS
 10
146.120414011
 20
203.4206205853
  7
TEXTSTYLE_2
 40
2.7777777778
  1
n
 50
90.0
 41
1.0
 72
1
 11
146.120414011
 21
205.2724724371
100
AcDbText
  0
TEXT
  5
2B8
100
AcDbEntity
  8
0
100
AcDbText
 62
5
  6
CONTINUOUS
 10
146.120414011
 20
207.124324289
  7
STANDARD
 40
2.7777777778
  1
50
 50
90.0
 41
0.75
 72
1
 11
146.120414011
 21
209.2076576223
100
AcDbText
  0
TEXT
  5
2B9
100
AcDbEntity
  8
0
100
AcDbText
 62
5
  6
CONTINUOUS
 10
144.4537473443
 20
211.2909909557
  7
TEXTSTYLE_3
 40
1.6666666667
  1
+0.05
 50
90.0
 41
0.7142857143
 72
1
 11
144.4537473443
 21
214.2671814319
100
AcDbText
  0
TEXT
  5
2BA
100
AcDbEntity
  8
0
100
AcDbText
 62
5
  6
CONTINUOUS
 10
146.6759695666
 20
211.2909909557
  7
TEXTSTYLE_3
 40
1.6666666667
  1
+0.02
 50
90.0
 41
0.7285714286
 72
1
 11
146.6759695666
 21
214.3267052414
100
AcDbText
  0
LINE
  5
2BB
100
AcDbEntity
  8
0
100
AcDbLine
 62
2
  6
CONTINUOUS
 10
172.5093028999
 20
185.3915200562
 11
145.8426362332
 21
185.3915200562
  0
LINE
  5
2BC
100
AcDbEntity
  8
0
100
AcDbLine
 62
2
  6
CONTINUOUS
 10
172.5093028999
 20
235.3915200562
 11
145.8426362332
 21
235.3915200562
  0
LINE
  5
2BD
100
AcDbEntity
  8
0
100
AcDbLine
 62
2
  6
CONTINUOUS
 10
147.5093028999
 20
185.3915200562
 11
147.5093028999
 21
210.3915200562
  0
LINE
  5
2BE
100
AcDbEntity
  8
0
100
AcDbLine
 62
2
  6
CONTINUOUS
 10
147.5093028999
 20
235.3915200562
 11
147.5093028999
 21
210.3915200562
  0
INSERT
  5
2BF
100
AcDbEntity
  8
0
100
AcDbBlockReference
 62
2
  6
CONTINUOUS
  2
_FILLED
 10
147.5093028999
 20
185.3915200562
 41
3.8888888889
 42
3.8888888889
 43
3.8888888889
 50
270.0
  0
INSERT
  5
2C0
100
AcDbEntity
  8
0
100
AcDbBlockReference
 62
2
  6
CONTINUOUS
  2
_FILLED
 10
147.5093028999
 20
235.3915200562
 41
3.8888888889
 42
3.8888888889
 43
3.8888888889
 50
90.0
  0
ENDBLK
  5
2C1
100
AcDbEntity
  8
0
  6
BYBLOCK
 62
0
100
AcDbBlockEnd
  0
BLOCK
  5
2C2
100
AcDbEntity
  8
0
100
AcDbBlockBegin
 62
2
  6
CONTINUOUS
  2
*D14
 70
65
 10
0.0
 20
0.0
  3
*D14
  1

  0
MTEXT
  5
2C3
100
AcDbEntity
  8
0
100
AcDbMText
 62
5
  6
CONTINUOUS
  7
STANDARD
 71
3
 72
1
 10
165.7138236055
 20
174.9748533895
 30
0.0
 11
1.0
 21
0.0
 31
0.0
 44
0.9
  1
4
 40
2.7777777778
 41
2.1825396825
  0
LINE
  5
2C4
100
AcDbEntity
  8
0
100
AcDbLine
 62
2
  6
CONTINUOUS
 10
173.0648584554
 20
195.6137422784
 11
173.0648584554
 21
169.8359645006
  0
LINE
  5
2C5
100
AcDbEntity
  8
0
100
AcDbLine
 62
2
  6
CONTINUOUS
 10
177.0648584554
 20
195.6137422784
 11
177.0648584554
 21
169.8359645006
  0
LINE
  5
2C6
100
AcDbEntity
  8
0
100
AcDbLine
 62
2
  6
CONTINUOUS
 10
173.0648584554
 20
171.5026311673
 11
163.531283923
 21
171.5026311673
  0
LINE
  5
2C7
100
AcDbEntity
  8
0
100
AcDbLine
 62
2
  6
CONTINUOUS
 10
163.531283923
 20
171.5026311673
 11
175.0648584554
 21
171.5026311673
  0
LINE
  5
2C8
100
AcDbEntity
  8
0
100
AcDbLine
 62
2
  6
CONTINUOUS
 10
177.0648584554
 20
171.5026311673
 11
183.7315251221
 21
171.5026311673
  0
LINE
  5
2C9
100
AcDbEntity
  8
0
100
AcDbLine
 62
2
  6
CONTINUOUS
 10
183.7315251221
 20
171.5026311673
 11
175.0648584554
 21
171.5026311673
  0
INSERT
  5
2CA
100
AcDbEntity
  8
0
100
AcDbBlockReference
 62
2
  6
CONTINUOUS
  2
_FILLED
 10
173.0648584554
 20
171.5026311673
 41
3.8888888889
 42
3.8888888889
 43
3.8888888889
  0
INSERT
  5
2CB
100
AcDbEntity
  8
0
100
AcDbBlockReference
 62
2
  6
CONTINUOUS
  2
_FILLED
 10
177.0648584554
 20
171.5026311673
 41
3.8888888889
 42
3.8888888889
 43
3.8888888889
 50
180.0
  0
ENDBLK
  5
2CC
100
AcDbEntity
  8
0
  6
BYBLOCK
 62
0
100
AcDbBlockEnd
  0
BLOCK
  5
2CD
100
AcDbEntity
  8
0
100
AcDbBlockBegin
 62
2
  6
CONTINUOUS
  2
*D15
 70
65
 10
0.0
 20
0.0
  3
*D15
  1

  0
MTEXT
  5
2CE
100
AcDbEntity
  8
0
100
AcDbMText
 62
5
  6
CONTINUOUS
  7
TEXTSTYLE_2
 71
1
 72
1
 10
440.5514192262
 20
199.0090486675
 30
0.0
 11
0.9463291108
 21
-0.323204601
 31
0.0
 44
0.9
  1
{\Fgdt;n}\Ftxt;70
 40
2.7777777778
 41
8.0687830688
  0
LINE
  5
2CF
100
AcDbEntity
  8
0
100
AcDbLine
 62
2
  6
CONTINUOUS
 10
429.6024446536
 20
199.0793590223
 11
396.4809257763
 21
210.3915200562
  0
LINE
  5
2D0
100
AcDbEntity
  8
0
100
AcDbLine
 62
2
  6
CONTINUOUS
 10
396.4809257763
 20
210.3915200562
 11
447.064905335
 21
193.1153158875
  0
LINE
  5
2D1
100
AcDbEntity
  8
0
100
AcDbLine
 62
2
  6
CONTINUOUS
 10
363.3594068989
 20
221.7036810901
 11
396.4809257763
 21
210.3915200562
  0
INSERT
  5
2D2
100
AcDbEntity
  8
0
100
AcDbBlockReference
 62
2
  6
CONTINUOUS
  2
_FILLED
 10
429.6024446536
 20
199.0793590223
 41
3.8888888889
 42
3.8888888889
 43
3.8888888889
 50
341.1431632896
  0
INSERT
  5
2D3
100
AcDbEntity
  8
0
100
AcDbBlockReference
 62
2
  6
CONTINUOUS
  2
_FILLED
 10
363.3594068989
 20
221.7036810901
 41
3.8888888889
 42
3.8888888889
 43
3.8888888889
 50
161.1431632896
  0
ENDBLK
  5
2D4
100
AcDbEntity
  8
0
  6
BYBLOCK
 62
0
100
AcDbBlockEnd
  0
BLOCK
  5
2D5
100
AcDbEntity
  8
0
100
AcDbBlockBegin
 62
2
  6
CONTINUOUS
  2
*D16
 70
65
 10
0.0
 20
0.0
  3
*D16
  1

  0
MTEXT
  5
2D6
100
AcDbEntity
  8
0
100
AcDbMText
 62
5
  6
CONTINUOUS
  7
STANDARD
 71
1
 72
1
 10
380.2153898729
 20
259.9748533895
 30
0.0
 11
1.0
 21
0.0
 31
0.0
 44
0.9
  1
M5        
 40
2.7777777778
 41
21.8253968254
  0
LINE
  5
2D7
100
AcDbEntity
  8
0
100
AcDbLine
 62
2
  6
CONTINUOUS
 10
369.2325006186
 20
235.5733789597
 11
369.2488269688
 21
258.1772192213
  0
LINE
  5
2D8
100
AcDbEntity
  8
0
100
AcDbLine
 62
2
  6
CONTINUOUS
 10
374.2325017589
 20
235.5731519904
 11
374.2488256646
 21
258.1736078115
  0
LINE
  5
2D9
100
AcDbEntity
  8
0
100
AcDbLine
 62
2
  6
CONTINUOUS
 10
369.2476231656
 20
256.5105529894
 11
362.5809582379
 21
256.5153682024
  0
LINE
  5
2DA
100
AcDbEntity
  8
0
100
AcDbLine
 62
2
  6
CONTINUOUS
 10
362.5809582379
 20
256.5153682024
 11
371.7476225135
 21
256.5087472845
  0
LINE
  5
2DB
100
AcDbEntity
  8
0
100
AcDbLine
 62
2
  6
CONTINUOUS
 10
374.2476218614
 20
256.5069415796
 11
402.0407866983
 21
256.5026311673
  0
LINE
  5
2DC
100
AcDbEntity
  8
0
100
AcDbLine
 62
2
  6
CONTINUOUS
 10
402.0407866983
 20
256.5026311673
 11
371.7476225135
 21
256.5087472845
  0
INSERT
  5
2DD
100
AcDbEntity
  8
0
100
AcDbBlockReference
 62
2
  6
CONTINUOUS
  2
_FILLED
 10
369.2476231656
 20
256.5105529894
 41
3.8888888889
 42
3.8888888889
 43
3.8888888889
 50
359.9586162886
  0
INSERT
  5
2DE
100
AcDbEntity
  8
0
100
AcDbBlockReference
 62
2
  6
CONTINUOUS
  2
_FILLED
 10
374.2476218614
 20
256.5069415796
 41
3.8888888889
 42
3.8888888889
 43
3.8888888889
 50
179.9911140588
  0
ENDBLK
  5
2DF
100
AcDbEntity
  8
0
  6
BYBLOCK
 62
0
100
AcDbBlockEnd
  0
BLOCK
  5
2E0
100
AcDbEntity
  8
0
100
AcDbBlockBegin
 62
2
  6
CONTINUOUS
  2
*D17
 70
65
 10
0.0
 20
0.0
  3
*D17
  1

  0
MTEXT
  5
2E1
100
AcDbEntity
  8
0
100
AcDbMText
 62
5
  6
CONTINUOUS
  7
TEXTSTYLE_2
 71
3
 72
1
 10
151.8148584554
 20
198.094090984
 30
0.0
 11
0.0
 21
1.0
 31
0.0
 44
0.9
  1
{\Fgdt;n}\Ftxt;14
 40
2.7777777778
 41
7.4735449735
  0
LINE
  5
2E2
100
AcDbEntity
  8
0
100
AcDbLine
 62
2
  6
CONTINUOUS
 10
181.3981917888
 20
203.3915200562
 11
153.620414011
 21
203.3915200562
  0
LINE
  5
2E3
100
AcDbEntity
  8
0
100
AcDbLine
 62
2
  6
CONTINUOUS
 10
181.3981917888
 20
217.3915200562
 11
153.620414011
 21
217.3915200562
  0
LINE
  5
2E4
100
AcDbEntity
  8
0
100
AcDbLine
 62
2
  6
CONTINUOUS
 10
155.2870806777
 20
203.3915200562
 11
155.2870806777
 21
190.6205460104
  0
LINE
  5
2E5
100
AcDbEntity
  8
0
100
AcDbLine
 62
2
  6
CONTINUOUS
 10
155.2870806777
 20
190.6205460104
 11
155.2870806777
 21
210.3915200562
  0
LINE
  5
2E6
100
AcDbEntity
  8
0
100
AcDbLine
 62
2
  6
CONTINUOUS
 10
155.2870806777
 20
217.3915200562
 11
155.2870806777
 21
224.0581867229
  0
LINE
  5
2E7
100
AcDbEntity
  8
0
100
AcDbLine
 62
2
  6
CONTINUOUS
 10
155.2870806777
 20
224.0581867229
 11
155.2870806777
 21
210.3915200562
  0
INSERT
  5
2E8
100
AcDbEntity
  8
0
100
AcDbBlockReference
 62
2
  6
CONTINUOUS
  2
_FILLED
 10
155.2870806777
 20
203.3915200562
 41
3.8888888889
 42
3.8888888889
 43
3.8888888889
 50
90.0
  0
INSERT
  5
2E9
100
AcDbEntity
  8
0
100
AcDbBlockReference
 62
2
  6
CONTINUOUS
  2
_FILLED
 10
155.2870806777
 20
217.3915200562
 41
3.8888888889
 42
3.8888888889
 43
3.8888888889
 50
270.0
  0
ENDBLK
  5
2EA
100
AcDbEntity
  8
0
  6
BYBLOCK
 62
0
100
AcDbBlockEnd
  0
BLOCK
  5
2EB
100
AcDbEntity
  8
0
100
AcDbBlockBegin
 62
2
  6
CONTINUOUS
  2
*D18
 70
65
 10
0.0
 20
0.0
  3
*D18
  1

  0
MTEXT
  5
2EC
100
AcDbEntity
  8
0
100
AcDbMText
 62
5
  6
CONTINUOUS
  7
STANDARD
 71
1
 72
1
 10
279.7958847091
 20
181.7299569415
 30
0.0
 11
0.513469823
 21
-0.8581076511
 31
0.0
 44
0.9
  1
R0.8
 40
2.7777777778
 41
8.1349206349
  0
LINE
  5
2ED
100
AcDbEntity
  8
0
100
AcDbLine
 62
2
  6
CONTINUOUS
 10
263.4540825971
 20
202.2780061771
 11
280.993380512
 21
172.9664379737
  0
INSERT
  5
2EE
100
AcDbEntity
  8
0
100
AcDbBlockReference
 62
2
  6
CONTINUOUS
  2
_FILLED
 10
263.4540825971
 20
202.2780061771
 41
3.8888888889
 42
3.8888888889
 43
3.8888888889
 50
120.895230566
  0
ENDBLK
  5
2EF
100
AcDbEntity
  8
0
  6
BYBLOCK
 62
0
100
AcDbBlockEnd
  0
BLOCK
  5
2F0
100
AcDbEntity
  8
0
100
AcDbBlockBegin
 62
2
  6
CONTINUOUS
  2
*D19
 70
65
 10
0.0
 20
0.0
  3
*D19
  1

  0
MTEXT
  5
2F1
100
AcDbEntity
  8
0
100
AcDbMText
 62
5
  6
CONTINUOUS
  7
TEXTSTYLE_2
 71
2
 72
1
 10
234.9000429336
 20
191.5763425175
 30
0.0
 11
0.0
 21
1.0
 31
0.0
 44
0.9
  1
{\Fgdt;n}\Ftxt;70
 40
2.7777777778
 41
8.0687830688
  0
LINE
  5
2F2
100
AcDbEntity
  8
0
100
AcDbLine
 62
2
  6
CONTINUOUS
 10
235.0389318225
 20
175.3915200562
 11
240.0389318225
 21
175.3915200562
  0
LINE
  5
2F3
100
AcDbEntity
  8
0
100
AcDbLine
 62
2
  6
CONTINUOUS
 10
235.0389318225
 20
245.3915200562
 11
240.0389318225
 21
245.3915200562
  0
LINE
  5
2F4
100
AcDbEntity
  8
0
100
AcDbLine
 62
2
  6
CONTINUOUS
 10
238.3722651558
 20
175.3915200562
 11
238.3722651558
 21
210.3915200562
  0
LINE
  5
2F5
100
AcDbEntity
  8
0
100
AcDbLine
 62
2
  6
CONTINUOUS
 10
238.3722651558
 20
245.3915200562
 11
238.3722651558
 21
210.3915200562
  0
INSERT
  5
2F6
100
AcDbEntity
  8
0
100
AcDbBlockReference
 62
2
  6
CONTINUOUS
  2
_FILLED
 10
238.3722651558
 20
175.3915200562
 41
3.8888888889
 42
3.8888888889
 43
3.8888888889
 50
270.0
  0
INSERT
  5
2F7
100
AcDbEntity
  8
0
100
AcDbBlockReference
 62
2
  6
CONTINUOUS
  2
_FILLED
 10
238.3722651558
 20
245.3915200562
 41
3.8888888889
 42
3.8888888889
 43
3.8888888889
 50
90.0
  0
ENDBLK
  5
2F8
100
AcDbEntity
  8
0
  6
BYBLOCK
 62
0
100
AcDbBlockEnd
  0
BLOCK
  5
2F9
100
AcDbEntity
  8
0
100
AcDbBlockBegin
 62
2
  6
CONTINUOUS
  2
*D20
 70
65
 10
0.0
 20
0.0
  3
*D20
  1

  0
MTEXT
  5
2FA
100
AcDbEntity
  8
0
100
AcDbMText
 62
5
  6
CONTINUOUS
  7
STANDARD
 71
2
 72
1
 10
229.5648584554
 20
279.9748533895
 30
0.0
 11
1.0
 21
0.0
 31
0.0
 44
0.9
  1
51
 40
2.7777777778
 41
3.5714285714
  0
LINE
  5
2FB
100
AcDbEntity
  8
0
100
AcDbLine
 62
2
  6
CONTINUOUS
 10
204.0648584554
 20
240.9833250691
 11
204.0648584554
 21
278.169297834
  0
LINE
  5
2FC
100
AcDbEntity
  8
0
100
AcDbLine
 62
2
  6
CONTINUOUS
 10
255.0648584554
 20
245.9470756118
 11
255.0648584554
 21
278.169297834
  0
LINE
  5
2FD
100
AcDbEntity
  8
0
100
AcDbLine
 62
2
  6
CONTINUOUS
 10
204.0648584554
 20
276.5026311673
 11
229.5648584554
 21
276.5026311673
  0
LINE
  5
2FE
100
AcDbEntity
  8
0
100
AcDbLine
 62
2
  6
CONTINUOUS
 10
255.0648584554
 20
276.5026311673
 11
229.5648584554
 21
276.5026311673
  0
INSERT
  5
2FF
100
AcDbEntity
  8
0
100
AcDbBlockReference
 62
2
  6
CONTINUOUS
  2
_FILLED
 10
204.0648584554
 20
276.5026311673
 41
3.8888888889
 42
3.8888888889
 43
3.8888888889
 50
180.0
  0
INSERT
  5
300
100
AcDbEntity
  8
0
100
AcDbBlockReference
 62
2
  6
CONTINUOUS
  2
_FILLED
 10
255.0648584554
 20
276.5026311673
 41
3.8888888889
 42
3.8888888889
 43
3.8888888889
  0
ENDBLK
  5
301
100
AcDbEntity
  8
0
  6
BYBLOCK
 62
0
100
AcDbBlockEnd
  0
BLOCK
  5
302
100
AcDbEntity
  8
0
100
AcDbBlockBegin
 62
2
  6
CONTINUOUS
  2
*D21
 70
65
 10
0.0
 20
0.0
  3
*D21
  1

  0
MTEXT
  5
303
100
AcDbEntity
  8
0
100
AcDbMText
 62
5
  6
CONTINUOUS
  7
STANDARD
 71
1
 72
1
 10
264.6830663408
 20
171.0859645006
 30
0.0
 11
1.0
 21
0.0
 31
0.0
 44
0.9
  1
3
 40
2.7777777778
 41
1.9841269841
  0
LINE
  5
304
100
AcDbEntity
  8
0
100
AcDbLine
 62
2
  6
CONTINUOUS
 10
258.0648584554
 20
183.8359645006
 11
258.0648584554
 21
165.9470756118
  0
LINE
  5
305
100
AcDbEntity
  8
0
100
AcDbLine
 62
2
  6
CONTINUOUS
 10
255.0648584554
 20
183.8359645006
 11
255.0648584554
 21
165.9470756118
  0
LINE
  5
306
100
AcDbEntity
  8
0
100
AcDbLine
 62
2
  6
CONTINUOUS
 10
258.0648584554
 20
167.6137422784
 11
266.6671933249
 21
167.6137422784
  0
LINE
  5
307
100
AcDbEntity
  8
0
100
AcDbLine
 62
2
  6
CONTINUOUS
 10
266.6671933249
 20
167.6137422784
 11
256.5648584554
 21
167.6137422784
  0
LINE
  5
308
100
AcDbEntity
  8
0
100
AcDbLine
 62
2
  6
CONTINUOUS
 10
255.0648584554
 20
167.6137422784
 11
248.3981917888
 21
167.6137422784
  0
LINE
  5
309
100
AcDbEntity
  8
0
100
AcDbLine
 62
2
  6
CONTINUOUS
 10
248.3981917888
 20
167.6137422784
 11
256.5648584554
 21
167.6137422784
  0
INSERT
  5
30A
100
AcDbEntity
  8
0
100
AcDbBlockReference
 62
2
  6
CONTINUOUS
  2
_FILLED
 10
258.0648584554
 20
167.6137422784
 41
3.8888888889
 42
3.8888888889
 43
3.8888888889
 50
180.0
  0
INSERT
  5
30B
100
AcDbEntity
  8
0
100
AcDbBlockReference
 62
2
  6
CONTINUOUS
  2
_FILLED
 10
255.0648584554
 20
167.6137422784
 41
3.8888888889
 42
3.8888888889
 43
3.8888888889
  0
ENDBLK
  5
30C
100
AcDbEntity
  8
0
  6
BYBLOCK
 62
0
100
AcDbBlockEnd
  0
BLOCK
  5
30D
100
AcDbEntity
  8
0
100
AcDbBlockBegin
 62
2
  6
CONTINUOUS
  2
*D22
 70
65
 10
0.0
 20
0.0
  3
*D22
  1

  0
MTEXT
  5
30E
100
AcDbEntity
  8
0
100
AcDbMText
 62
5
  6
CONTINUOUS
  7
TEXTSTYLE_2
 71
2
 72
1
 10
320.9259695666
 20
210.3915200562
 30
0.0
 11
0.0
 21
1.0
 31
0.0
 44
0.9
  1
{\Fgdt;n}\Ftxt;52
 40
2.7777777778
 41
7.8703703704
  0
LINE
  5
30F
100
AcDbEntity
  8
0
100
AcDbLine
 62
2
  6
CONTINUOUS
 10
258.8426362332
 20
184.3915200562
 11
326.0648584554
 21
184.3915200562
  0
LINE
  5
310
100
AcDbEntity
  8
0
100
AcDbLine
 62
2
  6
CONTINUOUS
 10
258.8405789652
 20
236.3915200562
 11
326.0648584554
 21
236.3915200562
  0
LINE
  5
311
100
AcDbEntity
  8
0
100
AcDbLine
 62
2
  6
CONTINUOUS
 10
324.3981917888
 20
184.3915200562
 11
324.3981917888
 21
210.3915200562
  0
LINE
  5
312
100
AcDbEntity
  8
0
100
AcDbLine
 62
2
  6
CONTINUOUS
 10
324.3981917888
 20
236.3915200562
 11
324.3981917888
 21
210.3915200562
  0
INSERT
  5
313
100
AcDbEntity
  8
0
100
AcDbBlockReference
 62
2
  6
CONTINUOUS
  2
_FILLED
 10
324.3981917888
 20
184.3915200562
 41
3.8888888889
 42
3.8888888889
 43
3.8888888889
 50
270.0
  0
INSERT
  5
314
100
AcDbEntity
  8
0
100
AcDbBlockReference
 62
2
  6
CONTINUOUS
  2
_FILLED
 10
324.3981917888
 20
236.3915200562
 41
3.8888888889
 42
3.8888888889
 43
3.8888888889
 50
90.0
  0
ENDBLK
  5
315
100
AcDbEntity
  8
0
  6
BYBLOCK
 62
0
100
AcDbBlockEnd
  0
BLOCK
  5
316
100
AcDbEntity
  8
0
100
AcDbBlockBegin
 62
2
  6
CONTINUOUS
  2
*D23
 70
65
 10
0.0
 20
0.0
  3
*D23
  1

  0
MTEXT
  5
317
100
AcDbEntity
  8
0
100
AcDbMText
 62
5
  6
CONTINUOUS
  7
STANDARD
 71
3
 72
1
 10
39.6304735504
 20
241.3548946115
 30
0.0
 11
0.7971237876
 21
-0.6038159216
 31
0.0
 44
0.9
  1
    \Fgdt;{\Fgdt;n}\Ftxt;62
 40
2.7777777778
 41
16.7989417989
  0
LINE
  5
318
100
AcDbEntity
  8
0
100
AcDbLine
 62
2
  6
CONTINUOUS
 10
50.0452752945
 20
229.1098136255
 11
74.7561127115
 21
210.3915200562
  0
LINE
  5
319
100
AcDbEntity
  8
0
100
AcDbLine
 62
2
  6
CONTINUOUS
 10
74.7561127115
 20
210.3915200562
 11
24.1430543741
 21
248.7305722062
  0
LINE
  5
31A
100
AcDbEntity
  8
0
100
AcDbLine
 62
2
  6
CONTINUOUS
 10
99.4669501286
 20
191.6732264868
 11
74.7561127115
 21
210.3915200562
  0
INSERT
  5
31B
100
AcDbEntity
  8
0
100
AcDbBlockReference
 62
2
  6
CONTINUOUS
  2
_FILLED
 10
50.0452752945
 20
229.1098136255
 41
3.8888888889
 42
3.8888888889
 43
3.8888888889
 50
142.8563154532
  0
INSERT
  5
31C
100
AcDbEntity
  8
0
100
AcDbBlockReference
 62
2
  6
CONTINUOUS
  2
_FILLED
 10
99.4669501286
 20
191.6732264868
 41
3.8888888889
 42
3.8888888889
 43
3.8888888889
 50
322.8563154532
  0
ENDBLK
  5
31D
100
AcDbEntity
  8
0
  6
BYBLOCK
 62
0
100
AcDbBlockEnd
  0
BLOCK
  5
31E
100
AcDbEntity
  8
0
100
AcDbBlockBegin
 62
2
  6
CONTINUOUS
  2
*D24
 70
65
 10
0.0
 20
0.0
  3
*D24
  1

  0
MTEXT
  5
31F
100
AcDbEntity
  8
0
100
AcDbMText
 62
5
  6
CONTINUOUS
  7
STANDARD
 71
3
 72
1
 10
73.7064165035
 20
168.8637390158
 30
0.0
 11
0.9999990604
 21
0.0013708553
 31
0.0
 44
0.9
  1
M5
 40
2.7777777778
 41
4.3650793651
  0
LINE
  5
320
100
AcDbEntity
  8
0
100
AcDbLine
 62
2
  6
CONTINUOUS
 10
103.2583998194
 20
208.7214278173
 11
103.3200280303
 21
163.7654413132
  0
LINE
  5
321
100
AcDbEntity
  8
0
100
AcDbLine
 62
2
  6
CONTINUOUS
 10
108.2583951213
 20
208.7282820939
 11
108.3200233322
 21
163.7722955898
  0
LINE
  5
322
100
AcDbEntity
  8
0
100
AcDbLine
 62
2
  6
CONTINUOUS
 10
103.3177432715
 20
165.4321064138
 11
69.3461011543
 21
165.385536164
  0
LINE
  5
323
100
AcDbEntity
  8
0
100
AcDbLine
 62
2
  6
CONTINUOUS
 10
69.3461011543
 20
165.385536164
 11
105.8177409224
 21
165.4355335521
  0
LINE
  5
324
100
AcDbEntity
  8
0
100
AcDbLine
 62
2
  6
CONTINUOUS
 10
108.3177385734
 20
165.4389606904
 11
114.9843989759
 21
165.4480997258
  0
LINE
  5
325
100
AcDbEntity
  8
0
100
AcDbLine
 62
2
  6
CONTINUOUS
 10
114.9843989759
 20
165.4480997258
 11
105.8177409224
 21
165.4355335521
  0
INSERT
  5
326
100
AcDbEntity
  8
0
100
AcDbBlockReference
 62
2
  6
CONTINUOUS
  2
_FILLED
 10
103.3177432715
 20
165.4321064138
 41
3.8888888889
 42
3.8888888889
 43
3.8888888889
 50
0.0785442484
  0
INSERT
  5
327
100
AcDbEntity
  8
0
100
AcDbBlockReference
 62
2
  6
CONTINUOUS
  2
_FILLED
 10
108.3177385734
 20
165.4389606904
 41
3.8888888889
 42
3.8888888889
 43
3.8888888889
 50
180.0785442484
  0
ENDBLK
  5
328
100
AcDbEntity
  8
0
  6
BYBLOCK
 62
0
100
AcDbBlockEnd
  0
BLOCK
  5
329
100
AcDbEntity
  8
0
100
AcDbBlockBegin
 62
2
  6
CONTINUOUS
  2
*D25
 70
65
 10
0.0
 20
0.0
  3
*D25
  1

  0
MTEXT
  5
32A
100
AcDbEntity
  8
0
100
AcDbMText
 62
5
  6
CONTINUOUS
  7
STANDARD
 71
1
 72
1
 10
264.5883995428
 20
176.676945304
 30
0.0
 11
0.394770336
 21
-0.9187798332
 31
0.0
 44
0.9
  1
R1
 40
2.7777777778
 41
3.7698412698
  0
LINE
  5
32B
100
AcDbEntity
  8
0
100
AcDbLine
 62
2
  6
CONTINUOUS
 10
257.4596287914
 20
184.472740223
 11
262.8864132935
 21
171.8425608378
  0
INSERT
  5
32C
100
AcDbEntity
  8
0
100
AcDbBlockReference
 62
2
  6
CONTINUOUS
  2
_FILLED
 10
257.4596287914
 20
184.472740223
 41
3.8888888889
 42
3.8888888889
 43
3.8888888889
 50
113.2516512766
  0
ENDBLK
  5
32D
100
AcDbEntity
  8
0
  6
BYBLOCK
 62
0
100
AcDbBlockEnd
  0
ENDSEC
  0
SECTION
  2
ENTITIES
  0
DIMENSION
  5
32E
100
AcDbEntity
  8
ZEICHNUNGSBEMASSUNGEN
100
AcDbDimension
 62
2
  6
CONTINUOUS
  2
*D0
 10
203.0648584554
 20
157.6137422784
 11
185.9815251221
 21
159.6970756118
 70
160
 71
2
 42
30.0
  3
DIMSTYLE_1
100
AcDbAlignedDimension
 13
173.0648584554
 23
179.5026311673
 14
203.0648584554
 24
202.8359645006
100
AcDbRotatedDimension
  0
DIMENSION
  5
32F
100
AcDbEntity
  8
ZEICHNUNGSBEMASSUNGEN
100
AcDbDimension
 62
2
  6
CONTINUOUS
  2
*D1
 10
291.0648584554
 20
287.6137422784
 11
229.3862870269
 21
289.6970756118
 70
160
 71
2
 42
118.0
  3
DIMSTYLE_2
100
AcDbAlignedDimension
 13
173.0648584554
 23
241.2804089451
 14
291.0648584554
 24
218.9470756118
100
AcDbRotatedDimension
  0
DIMENSION
  5
330
100
AcDbEntity
  8
ZEICHNUNGSBEMASSUNGEN
100
AcDbDimension
 62
2
  6
CONTINUOUS
  2
*D2
 10
204.0648584554
 20
276.5026311673
 11
186.7791441697
 21
278.5859645006
 70
160
 71
2
 42
31.0
  3
DIMSTYLE_2
100
AcDbAlignedDimension
 13
173.0648584554
 23
238.5156998335
 14
204.0648584554
 24
238.5156998335
100
AcDbRotatedDimension
  0
DIMENSION
  5
331
100
AcDbEntity
  8
ZEICHNUNGSBEMASSUNGEN
100
AcDbDimension
 62
2
  6
CONTINUOUS
  2
*D3
 10
291.0648584554
 20
276.5026311673
 11
270.9815251221
 21
278.5859645006
 70
160
 71
2
 42
36.0
  3
DIMSTYLE_2
100
AcDbAlignedDimension
 13
255.0648584554
 23
245.9470756118
 14
291.0648584554
 24
219.5581867229
 50
360.0
100
AcDbRotatedDimension
  0
DIMENSION
  5
332
100
AcDbEntity
  8
0
100
AcDbDimension
 62
2
  6
CONTINUOUS
  2
*D4
 10
304.3981917888
 20
202.3915200562
 11
303.9892076162
 21
164.4251965447
 70
160
 71
3
 42
16.0
  1
%%c<>
  3
DIMSTYLE_3
100
AcDbAlignedDimension
 13
291.620414011
 23
218.3915200562
 14
291.620414011
 24
202.3915200562
 50
270.0
100
AcDbRotatedDimension
  0
DIMENSION
  5
333
100
AcDbEntity
  8
0
100
AcDbDimension
 62
2
  6
CONTINUOUS
  2
*D5
 10
263.0648584554
 20
260.9470756118
 11
274.8823187729
 21
263.0304089451
 70
160
 71
2
 42
28.0
  3
DIMSTYLE_1
100
AcDbAlignedDimension
 13
291.0648584554
 23
218.9470756118
 14
263.0648584554
 24
225.9470756118
 50
180.0
100
AcDbRotatedDimension
  0
DIMENSION
  5
334
100
AcDbEntity
  8
0
100
AcDbDimension
 62
2
  6
CONTINUOUS
  2
*D6
 10
314.3981917888
 20
195.3915200562
 11
313.1964847835
 21
208.6324988431
 70
160
 71
2
 42
30.0
  1
%%c<>
  3
DIMSTYLE_1
100
AcDbAlignedDimension
 13
263.620414011
 23
225.3915200562
 14
263.620414011
 24
195.3915200562
 50
270.0
100
AcDbRotatedDimension
  0
DIMENSION
  5
335
100
AcDbEntity
  8
0
100
AcDbDimension
 62
2
  6
CONTINUOUS
  2
*D7
 10
28.6450016004
 20
202.3915200562
 11
27.4062514721
 21
209.7064072974
 70
160
 71
2
 42
18.0
  3
DIMSTYLE_1
100
AcDbAlignedDimension
 13
71.700557156
 23
220.3915200562
 14
73.7111764178
 24
202.3915200562
 50
270.0
100
AcDbRotatedDimension
  0
DIMENSION
  5
336
100
AcDbEntity
  8
0
100
AcDbDimension
 62
2
  6
CONTINUOUS
  2
*D8
 10
289.0648584554
 20
247.6137422784
 11
274.4815251221
 21
249.6970756118
 70
160
 71
2
 42
25.0
  3
DIMSTYLE_1
100
AcDbAlignedDimension
 13
264.0648584554
 23
220.9470756118
 14
289.0648584554
 24
220.9470756118
100
AcDbRotatedDimension
  0
DIMENSION
  5
337
100
AcDbEntity
  8
0
100
AcDbDimension
 62
2
  6
CONTINUOUS
  2
*D9
 10
289.0648584554
 20
254.2804089451
 11
305.4894616301
 21
256.3637422784
 70
160
 71
1
 42
2.0
  3
DIMSTYLE_4
100
AcDbAlignedDimension
 13
291.0648584554
 23
218.9470756118
 14
289.0648584554
 24
220.9470756118
 50
180.0
100
AcDbRotatedDimension
  0
DIMENSION
  5
338
100
AcDbEntity
  8
0
100
AcDbDimension
 62
2
  6
CONTINUOUS
  2
*D10
 10
72.2561127115
 20
254.2804089451
 11
73.7640492194
 21
256.3637422784
 70
160
 71
2
 42
5.0
  3
DIMSTYLE_4
100
AcDbAlignedDimension
 13
77.2561127115
 23
220.9470756118
 14
72.2561127115
 24
220.9470756118
 50
180.0
100
AcDbRotatedDimension
  0
DIMENSION
  5
339
100
AcDbEntity
  8
0
100
AcDbDimension
 62
2
  6
CONTINUOUS
  2
*D11
 10
426.4809257763
 20
269.8359645006
 11
394.4347948239
 21
271.919297834
 70
160
 71
2
 42
60.0
  1
{\Fgdt;o}<>
  3
DIMSTYLE_2
100
AcDbAlignedDimension
 13
366.4809257763
 23
238.7248533895
 14
426.4809257763
 24
238.7248533895
100
AcDbRotatedDimension
  0
DIMENSION
  5
33A
100
AcDbEntity
  8
0
100
AcDbDimension
 62
2
  6
CONTINUOUS
  2
*D12
 10
424.6987400635
 20
238.7420924816
 11
437.9957735106
 21
255.0549024829
 70
163
 71
1
 42
80.0
  1
<> 
  3
DIMSTYLE_5
100
AcDbDiametricDimension
 15
368.263111489
 25
182.0409476308
  0
DIMENSION
  5
33B
100
AcDbEntity
  8
0
100
AcDbDimension
 62
2
  6
CONTINUOUS
  2
*D13
 10
147.5093028999
 20
235.3915200562
 11
146.0784130754
 21
208.2067861461
 70
160
 71
2
 42
50.0
  1
%%c<>
  3
DIMSTYLE_6
100
AcDbAlignedDimension
 13
172.5093028999
 23
185.3915200562
 14
172.5093028999
 24
235.3915200562
 50
90.0
100
AcDbRotatedDimension
  0
DIMENSION
  5
33C
100
AcDbEntity
  8
0
100
AcDbDimension
 62
2
  6
CONTINUOUS
  2
*D14
 10
177.0648584554
 20
171.5026311673
 11
162.4400140817
 21
173.5859645006
 70
160
 71
3
 42
4.0
  3
DIMSTYLE_4
100
AcDbAlignedDimension
 13
173.0648584554
 23
195.6137422784
 14
177.0648584554
 24
195.6137422784
100
AcDbRotatedDimension
  0
DIMENSION
  5
33D
100
AcDbEntity
  8
0
100
AcDbDimension
 62
2
  6
CONTINUOUS
  2
*D15
 10
429.6024446536
 20
199.0793590223
 11
443.9203861004
 21
196.3907687743
 70
163
 71
1
 42
70.0
  1
<>
  3
DIMSTYLE_5
100
AcDbDiametricDimension
 15
363.3594068989
 25
221.7036810901
  0
DIMENSION
  5
33E
100
AcDbEntity
  8
0
100
AcDbDimension
 62
2
  6
CONTINUOUS
  2
*D16
 10
374.2476218614
 20
256.5069415796
 11
382.3979295554
 21
258.5859645006
 70
160
 71
1
 42
5.0
  1
M<>        
  3
DIMSTYLE_4
100
AcDbAlignedDimension
 13
369.2325006186
 23
235.5733789597
 14
374.2325017589
 24
235.5731519904
 50
359.9586162886
100
AcDbRotatedDimension
  0
DIMENSION
  5
33F
100
AcDbEntity
  8
0
100
AcDbDimension
 62
2
  6
CONTINUOUS
  2
*D17
 10
155.2870806777
 20
217.3915200562
 11
154.8780965051
 21
191.0166563614
 70
160
 71
3
 42
14.0
  1
%%c<>
  3
DIMSTYLE_1
100
AcDbAlignedDimension
 13
181.3981917888
 23
203.3915200562
 14
181.3981917888
 24
217.3915200562
 50
90.0
100
AcDbRotatedDimension
  0
DIMENSION
  5
340
100
AcDbEntity
  8
0
100
AcDbDimension
 62
2
  6
CONTINUOUS
  2
*D18
 10
263.8648584554
 20
201.5915200562
 11
280.6925866561
 21
177.5264855905
 70
164
 71
1
 42
0.8
  1
<>
  3
DIMSTYLE_7
100
AcDbRadialDimension
 15
263.4540825971
 25
202.2780061771
  0
DIMENSION
  5
341
100
AcDbEntity
  8
0
100
AcDbDimension
 62
2
  6
CONTINUOUS
  2
*D19
 10
238.3722651558
 20
245.3915200562
 11
237.1927840243
 21
189.7729762318
 70
160
 71
2
 42
70.0
  1
%%c<>
  3
DIMSTYLE_2
100
AcDbAlignedDimension
 13
235.0389318225
 23
175.3915200562
 14
235.0389318225
 24
245.3915200562
 50
90.0
100
AcDbRotatedDimension
  0
DIMENSION
  5
342
100
AcDbEntity
  8
0
100
AcDbDimension
 62
2
  6
CONTINUOUS
  2
*D20
 10
255.0648584554
 20
276.5026311673
 11
227.7791441697
 21
278.5859645006
 70
160
 71
2
 42
51.0
  3
DIMSTYLE_2
100
AcDbAlignedDimension
 13
204.0648584554
 23
240.9833250691
 14
255.0648584554
 24
245.9470756118
100
AcDbRotatedDimension
  0
DIMENSION
  5
343
100
AcDbEntity
  8
0
100
AcDbDimension
 62
2
  6
CONTINUOUS
  2
*D21
 10
255.0648584554
 20
167.6137422784
 11
265.6751298328
 21
169.6970756118
 70
160
 71
1
 42
3.0
  3
DIMSTYLE_4
100
AcDbAlignedDimension
 13
258.0648584554
 23
183.8359645006
 14
255.0648584554
 24
183.8359645006
 50
180.0
100
AcDbRotatedDimension
  0
DIMENSION
  5
344
100
AcDbEntity
  8
0
100
AcDbDimension
 62
2
  6
CONTINUOUS
  2
*D22
 10
324.3981917888
 20
236.3915200562
 11
323.1964847835
 21
208.6324988431
 70
160
 71
2
 42
52.0
  1
%%c<>
  3
DIMSTYLE_2
100
AcDbAlignedDimension
 13
258.8426362332
 23
184.3915200562
 14
258.8405789652
 24
236.3915200562
 50
90.0
100
AcDbRotatedDimension
  0
DIMENSION
  5
345
100
AcDbEntity
  8
0
100
AcDbDimension
 62
2
  6
CONTINUOUS
  2
*D23
 10
50.0452752945
 20
229.1098136255
 11
32.1480084241
 21
240.5564475601
 70
163
 71
3
 42
62.0
  1
    <>
  3
DIMSTYLE_5
100
AcDbDiametricDimension
 15
99.4669501286
 25
191.6732264868
  0
DIMENSION
  5
346
100
AcDbEntity
  8
0
100
AcDbDimension
 62
2
  6
CONTINUOUS
  2
*D24
 10
108.3177385734
 20
165.4389606904
 11
69.3499719553
 21
167.3006097526
 70
160
 71
3
 42
5.0
  1
M<>
  3
DIMSTYLE_4
100
AcDbAlignedDimension
 13
103.2583998194
 23
208.7214278173
 14
108.2583951213
 24
208.7282820939
 50
0.0785442484
100
AcDbRotatedDimension
  0
DIMENSION
  5
347
100
AcDbEntity
  8
0
100
AcDbDimension
 62
2
  6
CONTINUOUS
  2
*D25
 10
257.0648584554
 20
185.3915200562
 11
264.0564271936
 21
174.3968261042
 70
164
 71
1
 42
1.0
  1
<>
  3
DIMSTYLE_7
100
AcDbRadialDimension
 15
257.4596287914
 25
184.472740223
  0
MTEXT
  5
348
100
AcDbEntity
  8
0
100
AcDbMText
 62
5
  6
CONTINUOUS
  7
STANDARD
 71
1
 72
1
 10
151.0875363313
 20
217.6085610666
 30
0.0
 11
0.0
 21
1.0
 31
0.0
 44
0.9
  1
(for shaft diam. tol. j6/k6)
 40
2.7777777778
 41
51.5873015873
  0
MTEXT
  5
349
100
AcDbEntity
  8
0
100
AcDbMText
 62
5
  6
CONTINUOUS
  7
STANDARD
 71
1
 72
1
 10
300.8784026315
 20
173.1294753156
 30
0.0
 11
0.0
 21
1.0
 31
0.0
 44
0.9
  1
k7
 40
2.7777777778
 41
4.1666666667
  0
MTEXT
  5
34A
100
AcDbEntity
  8
0
100
AcDbMText
 62
5
  6
CONTINUOUS
  7
STANDARD
 71
1
 72
1
 10
320.7789393991
 20
216.6916530201
 30
0.0
 11
0.0
 21
1.0
 31
0.0
 44
0.9
  1
h7
 40
2.7777777778
 41
4.1666666667
  0
LEADER
  5
34B
100
AcDbEntity
  8
0
100
AcDbLeader
 62
2
  6
CONTINUOUS
  3
STANDARD
 71
1
 72
0
 73
0
 75
0
 40
2.7777777778
 41
25.2645502646
 76
3
 10
279.733032087
 20
219.04464874
 30
0.0
 10
298.5562651453
 20
276.5026311673
 30
0.0
 10
304.1118207008
 20
276.5026311673
 30
0.0
340
34C
1001
ACAD
1000
DSTYLE
1002
{
1070
77
1070
0
1070
341
1005
213
1002
}
  0
MTEXT
  5
34C
102
{ACAD_REACTORS
330
34B
102
}
100
AcDbEntity
  8
0
100
AcDbMText
 62
5
  6
CONTINUOUS
  7
STANDARD
 71
1
 72
1
 10
304.1118207008
 20
277.8915200562
 30
0.0
 11
1.0
 21
0.0
 31
0.0
 44
0.9
  1
Key DIN 6885\PA 5x5x25
 40
2.7777777778
 41
25.2645502646
  0
LEADER
  5
34D
100
AcDbEntity
  8
0
100
AcDbLeader
 62
2
  6
CONTINUOUS
  3
STANDARD
 71
1
 72
0
 73
0
 75
0
 40
2.7777777778
 41
38.5582010582
 76
4
 10
291.0642108538
 20
210.3885355966
 30
0.0
 10
300.5641698325
 20
209.3821288431
 30
0.0
 10
286.7787025893
 20
150.9470756118
 30
0.0
 10
281.2231470337
 20
150.9470756118
 30
0.0
340
34E
1001
ACAD
1000
DSTYLE
1002
{
1070
77
1070
0
1002
}
  0
MTEXT
  5
34E
102
{ACAD_REACTORS
330
34D
102
}
100
AcDbEntity
  8
0
100
AcDbMText
 62
5
  6
CONTINUOUS
  7
STANDARD
 71
3
 72
1
 10
281.2231470337
 20
152.3359645006
 30
0.0
 11
1.0
 21
0.0
 31
0.0
 44
0.9
  1
Centre bore DIN 332\PDR M5x12,5
 40
2.7777777778
 41
38.5582010582
  0
MTEXT
  5
34F
100
AcDbEntity
  8
0
100
AcDbMText
 62
5
  6
CONTINUOUS
  7
STANDARD
 71
1
 72
1
 10
26.6689252096
 20
251.2138875085
 30
0.0
 11
0.8191520443
 21
-0.5735764364
 31
0.0
 44
0.9
  1
pcd.
 40
2.7777777778
 41
7.3412698413
  0
MTEXT
  5
350
100
AcDbEntity
  8
0
100
AcDbMText
 62
5
  6
CONTINUOUS
  7
STANDARD
 71
1
 72
1
 10
75.3324341954
 20
168.9885811488
 30
0.0
 11
1.0
 21
0.0
 31
0.0
 44
0.9
  1
x8 deep
 40
2.7777777778
 41
14.2857142857
  0
MTEXT
  5
351
100
AcDbEntity
  8
0
100
AcDbMText
 62
5
  6
CONTINUOUS
  7
STANDARD
 71
1
 72
1
 10
432.3486298964
 20
201.7034378
 30
0.0
 11
0.9510565163
 21
-0.3090169944
 31
0.0
 44
0.9
  1
pcd.
 40
2.7777777778
 41
7.3412698413
  0
MTEXT
  5
352
100
AcDbEntity
  8
0
100
AcDbMText
 62
5
  6
CONTINUOUS
  7
STANDARD
 71
1
 72
1
 10
386.0022516877
 20
260.0065571351
 30
0.0
 11
1.0
 21
0.0
 31
0.0
 44
0.9
  1
x12 deep
 40
2.7777777778
 41
15.873015873
  0
LINE
  5
353
100
AcDbEntity
  8
0
100
AcDbLine
 62
2
  6
CONTINUOUS
 10
5.3257914971
 20
324.4967106098
 11
5.3257914971
 21
5.5946020769
  0
LINE
  5
354
100
AcDbEntity
  8
0
100
AcDbLine
 62
2
  6
CONTINUOUS
 10
5.3257914971
 20
5.5946020769
 11
461.2342311153
 21
5.5946020769
  0
LINE
  5
355
100
AcDbEntity
  8
0
100
AcDbLine
 62
2
  6
CONTINUOUS
 10
461.2342311153
 20
324.4967106098
 11
5.3257914971
 21
324.4967106098
  0
LINE
  5
356
100
AcDbEntity
  8
0
100
AcDbLine
 62
2
  6
CONTINUOUS
 10
461.2342311153
 20
5.5946020769
 11
461.2342311153
 21
324.4967106098
  0
LINE
  5
357
100
AcDbEntity
  8
0
100
AcDbLine
 62
7
  6
CONTINUOUS
 10
173.0648584554
 20
180.3915200562
 11
173.0648584554
 21
240.3915200562
  0
LINE
  5
358
100
AcDbEntity
  8
BLATT2_3D_ANSICHT
100
AcDbLine
 62
2
  6
CENTER
 10
177.0648584554
 20
235.3915200562
 11
177.0648584554
 21
185.3915200562
  0
LINE
  5
359
100
AcDbEntity
  8
0
100
AcDbLine
 62
7
  6
CONTINUOUS
 10
185.7554573787
 20
199.8915200562
 11
186.9101579171
 21
197.8915200562
  0
LINE
  5
35A
100
AcDbEntity
  8
BEZUGSACHSEN
100
AcDbLine
 62
2
  6
CENTER
 10
188.0648584554
 20
199.8915200562
 11
188.0648584554
 21
192.5581867229
  0
LINE
  5
35B
100
AcDbEntity
  8
BEZUGSACHSEN
100
AcDbLine
 62
2
  6
CENTER
 10
188.0648584554
 20
199.8915200562
 11
188.0648584554
 21
207.2248533895
  0
LINE
  5
35C
100
AcDbEntity
  8
FASEN
100
AcDbLine
 62
7
  6
CONTINUOUS
 10
204.0648584554
 20
240.2915200562
 11
204.1648584546
 21
240.3915200554
  0
LINE
  5
35D
100
AcDbEntity
  8
FASEN
100
AcDbLine
 62
7
  6
CONTINUOUS
 10
204.0648584554
 20
180.4915200562
 11
204.164858455
 21
180.3915200566
  0
LINE
  5
35E
100
AcDbEntity
  8
0
100
AcDbLine
 62
7
  6
CONTINUOUS
 10
190.3742595322
 20
199.8915200562
 11
189.2195589938
 21
201.8915200562
  0
LINE
  5
35F
100
AcDbEntity
  8
0
100
AcDbLine
 62
7
  6
CONTINUOUS
 10
186.9101579171
 20
201.8915200562
 11
185.7554573787
 21
199.8915200562
  0
LINE
  5
360
100
AcDbEntity
  8
0
100
AcDbLine
 62
7
  6
CONTINUOUS
 10
221.7055984892
 20
245.3915200562
 11
214.5648584554
 21
240.3915200562
  0
LINE
  5
361
100
AcDbEntity
  8
0
100
AcDbLine
 62
7
  6
CONTINUOUS
 10
255.0648584554
 20
175.3915200562
 11
221.7055984892
 21
175.3915200562
  0
LINE
  5
362
100
AcDbEntity
  8
0
100
AcDbLine
 62
7
  6
CONTINUOUS
 10
221.7055984892
 20
175.3915200562
 11
214.5648584554
 21
180.3915200562
  0
LINE
  5
363
100
AcDbEntity
  8
BLATT2_3D_ANSICHT
100
AcDbLine
 62
2
  6
CENTER
 10
203.0648584554
 20
217.3915200562
 11
203.0648584554
 21
203.3915200562
  0
LINE
  5
364
100
AcDbEntity
  8
0
100
AcDbLine
 62
7
  6
CONTINUOUS
 10
204.0648584554
 20
180.3915200562
 11
204.0648584554
 21
240.3915200562
  0
LINE
  5
365
100
AcDbEntity
  8
FASEN
100
AcDbLine
 62
7
  6
CONTINUOUS
 10
204.1648584554
 20
180.3915200562
 11
204.1648584554
 21
240.3915200562
  0
LINE
  5
366
100
AcDbEntity
  8
0
100
AcDbLine
 62
7
  6
CONTINUOUS
 10
189.2195589938
 20
197.8915200562
 11
190.3742595322
 21
199.8915200562
  0
LINE
  5
367
100
AcDbEntity
  8
0
100
AcDbLine
 62
7
  6
CONTINUOUS
 10
214.5648584554
 20
180.3915200562
 11
213.4148584554
 21
180.3915200562
  0
LINE
  5
368
100
AcDbEntity
  8
0
100
AcDbLine
 62
7
  6
CONTINUOUS
 10
204.4148584554
 20
180.3915200562
 11
204.1648584554
 21
180.3915200562
  0
LINE
  5
369
100
AcDbEntity
  8
0
100
AcDbLine
 62
7
  6
CONTINUOUS
 10
204.0648584554
 20
180.3915200562
 11
173.0648584554
 21
180.3915200562
  0
LINE
  5
36A
100
AcDbEntity
  8
0
100
AcDbLine
 62
7
  6
CONTINUOUS
 10
204.0648584554
 20
183.9340069456
 11
173.0648584554
 21
183.9340069456
  0
LINE
  5
36B
100
AcDbEntity
  8
0
100
AcDbLine
 62
7
  6
CONTINUOUS
 10
257.0648584554
 20
184.3915200562
 11
255.0648584554
 21
184.3915200562
  0
LINE
  5
36C
100
AcDbEntity
  8
BLATT2_3D_ANSICHT
100
AcDbLine
 62
2
  6
CENTER
 10
177.0648584554
 20
185.3915200562
 11
173.0648584554
 21
185.3915200562
  0
LINE
  5
36D
100
AcDbEntity
  8
0
100
AcDbLine
 62
7
  6
CONTINUOUS
 10
208.193170619
 20
211.6415200562
 11
207.4714827825
 21
210.3915200562
  0
LINE
  5
36E
100
AcDbEntity
  8
0
100
AcDbLine
 62
7
  6
CONTINUOUS
 10
209.6365462919
 20
209.1415200562
 11
210.3582341284
 21
210.3915200562
  0
LINE
  5
36F
100
AcDbEntity
  8
0
100
AcDbLine
 62
7
  6
CONTINUOUS
 10
207.4714827825
 20
210.3915200562
 11
208.193170619
 21
209.1415200562
  0
LINE
  5
370
100
AcDbEntity
  8
0
100
AcDbLine
 62
7
  6
CONTINUOUS
 10
210.3582341284
 20
210.3915200562
 11
209.6365462919
 21
211.6415200562
  0
LINE
  5
371
100
AcDbEntity
  8
0
100
AcDbLine
 62
7
  6
CONTINUOUS
 10
214.5648584554
 20
240.3915200562
 11
214.5648584554
 21
180.3915200562
  0
LINE
  5
372
100
AcDbEntity
  8
0
100
AcDbLine
 62
7
  6
CONTINUOUS
 10
258.0648584554
 20
193.3915200562
 11
259.5648584554
 21
193.3915200562
  0
LINE
  5
373
100
AcDbEntity
  8
0
100
AcDbLine
 62
7
  6
CONTINUOUS
 10
259.5648584554
 20
195.3915200562
 11
263.0648584554
 21
195.3915200562
  0
LINE
  5
374
100
AcDbEntity
  8
0
100
AcDbLine
 62
7
  6
CONTINUOUS
 10
221.7055984892
 20
245.3915200562
 11
221.7055984892
 21
175.3915200562
  0
LINE
  5
375
100
AcDbEntity
  8
0
100
AcDbLine
 62
7
  6
CONTINUOUS
 10
186.9101579171
 20
197.8915200562
 11
189.2195589938
 21
197.8915200562
  0
LINE
  5
376
100
AcDbEntity
  8
BEZUGSACHSEN
100
AcDbLine
 62
2
  6
CENTER
 10
188.0648584554
 20
199.8915200562
 11
180.7315251221
 21
199.8915200562
  0
LINE
  5
377
100
AcDbEntity
  8
BEZUGSACHSEN
100
AcDbLine
 62
2
  6
CENTER
 10
188.0648584554
 20
199.8915200562
 11
195.3981917888
 21
199.8915200562
  0
LINE
  5
378
100
AcDbEntity
  8
0
100
AcDbLine
 62
7
  6
CONTINUOUS
 10
189.2195589938
 20
201.8915200562
 11
186.9101579171
 21
201.8915200562
  0
LINE
  5
379
100
AcDbEntity
  8
0
100
AcDbLine
 62
7
  6
CONTINUOUS
 10
263.8648584554
 20
202.3915200562
 11
290.5648584554
 21
202.3915200562
  0
LINE
  5
37A
100
AcDbEntity
  8
BLATT2_3D_ANSICHT
100
AcDbLine
 62
2
  6
CENTER
 10
203.0648584554
 20
203.3915200562
 11
177.0648584554
 21
203.3915200562
  0
LINE
  5
37B
100
AcDbEntity
  8
0
100
AcDbLine
 62
7
  6
CONTINUOUS
 10
208.193170619
 20
209.1415200562
 11
209.6365462919
 21
209.1415200562
  0
LINE
  5
37C
100
AcDbEntity
  8
TEIL_STARTBEZUEGE
100
AcDbLine
 62
2
  6
CENTER
 10
169.7315251221
 20
210.3915200562
 11
294.3981917892
 21
210.3915200562
  0
LINE
  5
37D
100
AcDbEntity
  8
0
100
AcDbLine
 62
7
  6
CONTINUOUS
 10
209.6365462919
 20
211.6415200562
 11
208.193170619
 21
211.6415200562
  0
LINE
  5
37E
100
AcDbEntity
  8
BLATT2_3D_ANSICHT
100
AcDbLine
 62
2
  6
CENTER
 10
177.0648584554
 20
217.3915200562
 11
203.0648584554
 21
217.3915200562
  0
LINE
  5
37F
100
AcDbEntity
  8
BEZUGSACHSEN
100
AcDbLine
 62
7
  6
CONTINUOUS
 10
266.5648584554
 20
217.990862133
 11
286.5648584554
 21
217.990862133
  0
LINE
  5
380
100
AcDbEntity
  8
0
100
AcDbLine
 62
7
  6
CONTINUOUS
 10
263.8648584554
 20
218.3915200562
 11
264.0652739126
 21
218.3915200562
  0
LINE
  5
381
100
AcDbEntity
  8
0
100
AcDbLine
 62
7
  6
CONTINUOUS
 10
289.0646843745
 20
218.3915200562
 11
290.5648584554
 21
218.3915200562
  0
LINE
  5
382
100
AcDbEntity
  8
BEZUGSACHSEN
100
AcDbLine
 62
7
  6
CONTINUOUS
 10
264.0650573229
 20
220.3915200562
 11
289.064659588
 21
220.3915200562
  0
LINE
  5
383
100
AcDbEntity
  8
0
100
AcDbLine
 62
7
  6
CONTINUOUS
 10
259.5648584554
 20
225.3915200562
 11
263.0648584554
 21
225.3915200562
  0
LINE
  5
384
100
AcDbEntity
  8
0
100
AcDbLine
 62
7
  6
CONTINUOUS
 10
258.0648584554
 20
227.3915200562
 11
259.5648584554
 21
227.3915200562
  0
LINE
  5
385
100
AcDbEntity
  8
0
100
AcDbLine
 62
7
  6
CONTINUOUS
 10
255.0648584554
 20
245.3915200562
 11
255.0648584554
 21
175.3915200562
  0
LINE
  5
386
100
AcDbEntity
  8
RUNDUNGEN
100
AcDbLine
 62
9
  6
CONTINUOUS
 10
257.0648584554
 20
184.3915200562
 11
257.0648584554
 21
236.3915200562
  0
LINE
  5
387
100
AcDbEntity
  8
RUNDUNGEN
100
AcDbLine
 62
7
  6
CONTINUOUS
 10
258.0648584554
 20
185.3915200562
 11
258.0648584554
 21
235.3915200562
  0
LINE
  5
388
100
AcDbEntity
  8
0
100
AcDbLine
 62
7
  6
CONTINUOUS
 10
259.5648584554
 20
193.3916585318
 11
259.5648584554
 21
227.3913815806
  0
LINE
  5
389
100
AcDbEntity
  8
BLATT2_3D_ANSICHT
100
AcDbLine
 62
2
  6
CENTER
 10
173.0648584554
 20
235.3915200562
 11
177.0648584554
 21
235.3915200562
  0
LINE
  5
38A
100
AcDbEntity
  8
0
100
AcDbLine
 62
7
  6
CONTINUOUS
 10
257.0648584554
 20
236.3915200562
 11
255.0648584554
 21
236.3915200562
  0
LINE
  5
38B
100
AcDbEntity
  8
0
100
AcDbLine
 62
7
  6
CONTINUOUS
 10
204.0648584554
 20
236.8490331668
 11
173.0648584554
 21
236.8490331668
  0
LINE
  5
38C
100
AcDbEntity
  8
0
100
AcDbLine
 62
7
  6
CONTINUOUS
 10
263.0648584554
 20
195.3916422405
 11
263.0648584554
 21
225.3913978719
  0
LINE
  5
38D
100
AcDbEntity
  8
RUNDUNGEN
100
AcDbLine
 62
9
  6
CONTINUOUS
 10
263.8648584554
 20
218.3915200562
 11
263.8648584554
 21
202.3915200562
  0
LINE
  5
38E
100
AcDbEntity
  8
BEZUGSACHSEN
100
AcDbLine
 62
7
  6
CONTINUOUS
 10
264.0648584554
 20
218.3913926203
 11
264.0648584554
 21
220.3915200562
  0
LINE
  5
38F
100
AcDbEntity
  8
0
100
AcDbLine
 62
7
  6
CONTINUOUS
 10
214.5648584554
 20
240.3915200562
 11
213.4148584554
 21
240.3915200562
  0
LINE
  5
390
100
AcDbEntity
  8
0
100
AcDbLine
 62
7
  6
CONTINUOUS
 10
204.4148584554
 20
240.3915200562
 11
204.1648584554
 21
240.3915200562
  0
LINE
  5
391
100
AcDbEntity
  8
0
100
AcDbLine
 62
7
  6
CONTINUOUS
 10
204.0648584554
 20
240.3915200562
 11
173.0648584554
 21
240.3915200562
  0
LINE
  5
392
100
AcDbEntity
  8
BEZUGSACHSEN
100
AcDbLine
 62
9
  6
CONTINUOUS
 10
266.5648584554
 20
217.990862133
 11
266.5648584554
 21
220.3915200562
  0
LINE
  5
393
100
AcDbEntity
  8
0
100
AcDbLine
 62
7
  6
CONTINUOUS
 10
255.0648584554
 20
245.3915200562
 11
221.7055984892
 21
245.3915200562
  0
LINE
  5
394
100
AcDbEntity
  8
FASEN
100
AcDbLine
 62
7
  6
CONTINUOUS
 10
291.0648584554
 20
202.8915200562
 11
290.5648584554
 21
202.3915200562
  0
LINE
  5
395
100
AcDbEntity
  8
FASEN
100
AcDbLine
 62
7
  6
CONTINUOUS
 10
291.0648584554
 20
217.8915200562
 11
290.5648584554
 21
218.3915200562
  0
LINE
  5
396
100
AcDbEntity
  8
BEZUGSACHSEN
100
AcDbLine
 62
9
  6
CONTINUOUS
 10
286.5648584554
 20
217.990862133
 11
286.5648584554
 21
220.3915200562
  0
LINE
  5
397
100
AcDbEntity
  8
BEZUGSACHSEN
100
AcDbLine
 62
7
  6
CONTINUOUS
 10
289.0648584554
 20
218.3914666712
 11
289.0648584554
 21
220.3915200562
  0
LINE
  5
398
100
AcDbEntity
  8
FASEN
100
AcDbLine
 62
7
  6
CONTINUOUS
 10
290.5648584554
 20
202.3915200562
 11
290.5648584554
 21
218.3915200562
  0
LINE
  5
399
100
AcDbEntity
  8
FASEN
100
AcDbLine
 62
7
  6
CONTINUOUS
 10
291.0648584554
 20
202.8915200562
 11
291.0648584554
 21
217.8915200562
  0
LINE
  5
39A
100
AcDbEntity
  8
0
100
AcDbLine
 62
7
  6
CONTINUOUS
 10
44.7561127115
 20
183.9340069456
 11
44.7561127115
 21
192.4301873484
  0
LINE
  5
39B
100
AcDbEntity
  8
0
100
AcDbLine
 62
7
  6
CONTINUOUS
 10
44.7561127115
 20
228.352852764
 11
44.7561127115
 21
236.8490331668
  0
LINE
  5
39C
100
AcDbEntity
  8
0
100
AcDbLine
 62
7
  6
CONTINUOUS
 10
101.2136258222
 20
180.3915200562
 11
92.7174454193
 21
180.3915200562
  0
LINE
  5
39D
100
AcDbEntity
  8
0
100
AcDbLine
 62
7
  6
CONTINUOUS
 10
56.7947800037
 20
180.3915200562
 11
48.2985996009
 21
180.3915200562
  0
LINE
  5
39E
100
AcDbEntity
  8
BEZUGSACHSEN
100
AcDbLine
 62
7
  6
CONTINUOUS
 10
72.2561127115
 20
217.990862133
 11
72.2561127115
 21
220.3915200562
  0
LINE
  5
39F
100
AcDbEntity
  8
TEIL_STARTBEZUEGE
100
AcDbLine
 62
2
  6
CENTER
 10
74.7561127115
 20
173.169297834
 11
74.7561127115
 21
247.6137422784
  0
LINE
  5
3A0
100
AcDbEntity
  8
TEIL_STARTBEZUEGE
100
AcDbLine
 62
2
  6
CENTER
 10
111.9783349337
 20
210.3915200562
 11
37.5338904893
 21
210.3915200562
  0
LINE
  5
3A1
100
AcDbEntity
  8
BEZUGSACHSEN
100
AcDbLine
 62
7
  6
CONTINUOUS
 10
77.2561127115
 20
217.990862133
 11
77.2561127115
 21
220.3915200562
  0
LINE
  5
3A2
100
AcDbEntity
  8
BEZUGSACHSEN
100
AcDbLine
 62
7
  6
CONTINUOUS
 10
72.2561127115
 20
220.3915200562
 11
77.2561127115
 21
220.3915200562
  0
LINE
  5
3A3
100
AcDbEntity
  8
0
100
AcDbLine
 62
7
  6
CONTINUOUS
 10
104.7561127115
 20
236.8490331668
 11
104.7561127115
 21
228.352852764
  0
LINE
  5
3A4
100
AcDbEntity
  8
0
100
AcDbLine
 62
7
  6
CONTINUOUS
 10
104.7561127115
 20
192.4301873484
 11
104.7561127115
 21
183.9340069456
  0
LINE
  5
3A5
100
AcDbEntity
  8
0
100
AcDbLine
 62
7
  6
CONTINUOUS
 10
48.2985996009
 20
240.3915200562
 11
56.7947800037
 21
240.3915200562
  0
LINE
  5
3A6
100
AcDbEntity
  8
0
100
AcDbLine
 62
7
  6
CONTINUOUS
 10
92.7174454193
 20
240.3915200562
 11
101.2136258222
 21
240.3915200562
  0
LINE
  5
3A7
100
AcDbEntity
  8
0
100
AcDbLine
 62
7
  6
CONTINUOUS
 10
366.4809257763
 20
236.8490331668
 11
366.4809257763
 21
183.9340069456
  0
LINE
  5
3A8
100
AcDbEntity
  8
0
100
AcDbLine
 62
7
  6
CONTINUOUS
 10
370.0234126656
 20
180.3915200562
 11
422.9384388869
 21
180.3915200562
  0
LINE
  5
3A9
100
AcDbEntity
  8
BEZUGSACHSEN
100
AcDbLine
 62
2
  6
CENTER
 10
371.7321884347
 20
235.1402573977
 11
371.7321884347
 21
232.2202413867
  0
LINE
  5
3AA
100
AcDbEntity
  8
BEZUGSACHSEN
100
AcDbLine
 62
2
  6
CENTER
 10
371.7321884347
 20
185.6427827147
 11
371.7321884347
 21
182.65337546
  0
LINE
  5
3AB
100
AcDbEntity
  8
BEZUGSACHSEN
100
AcDbLine
 62
2
  6
CENTER
 10
371.7321884347
 20
185.6427827147
 11
371.7321884347
 21
188.5802851465
  0
LINE
  5
3AC
100
AcDbEntity
  8
BEZUGSACHSEN
100
AcDbLine
 62
2
  6
CENTER
 10
371.7321884347
 20
235.1402573977
 11
371.7321884347
 21
238.0483706742
  0
LINE
  5
3AD
100
AcDbEntity
  8
BEZUGSACHSEN
100
AcDbLine
 62
2
  6
CENTER
 10
421.2296631178
 20
185.6427827147
 11
418.2598215876
 21
185.6427827147
  0
LINE
  5
3AE
100
AcDbEntity
  8
BEZUGSACHSEN
100
AcDbLine
 62
2
  6
CENTER
 10
371.7321884347
 20
185.6427827147
 11
368.7603237951
 21
185.6427827147
  0
LINE
  5
3AF
100
AcDbEntity
  8
BEZUGSACHSEN
100
AcDbLine
 62
2
  6
CENTER
 10
371.7321884347
 20
185.6427827147
 11
374.6226011379
 21
185.6427827147
  0
LINE
  5
3B0
100
AcDbEntity
  8
BEZUGSACHSEN
100
AcDbLine
 62
2
  6
CENTER
 10
421.2296631178
 20
185.6427827147
 11
424.1720969292
 21
185.6427827147
  0
LINE
  5
3B1
100
AcDbEntity
  8
0
100
AcDbLine
 62
7
  6
CONTINUOUS
 10
403.0800430106
 20
196.3915200562
 11
405.4809257763
 21
196.3915200562
  0
LINE
  5
3B2
100
AcDbEntity
  8
0
100
AcDbLine
 62
7
  6
CONTINUOUS
 10
395.7309257763
 20
203.4318146027
 11
395.7309257763
 21
194.9096758508
  0
LINE
  5
3B3
100
AcDbEntity
  8
TEIL_STARTBEZUEGE
100
AcDbLine
 62
2
  6
CENTER
 10
396.4809257763
 20
173.169297834
 11
396.4809257763
 21
247.6137422784
  0
LINE
  5
3B4
100
AcDbEntity
  8
TEIL_STARTBEZUEGE
100
AcDbLine
 62
2
  6
CENTER
 10
359.2587035541
 20
210.3915200562
 11
433.7031479985
 21
210.3915200562
  0
LINE
  5
3B5
100
AcDbEntity
  8
0
100
AcDbLine
 62
7
  6
CONTINUOUS
 10
397.2309257763
 20
203.4318146027
 11
397.2309257763
 21
194.9096758508
  0
LINE
  5
3B6
100
AcDbEntity
  8
RUNDUNGEN
100
AcDbLine
 62
9
  6
CONTINUOUS
 10
405.4809257763
 20
197.7878876891
 11
405.4809257763
 21
196.3915200562
  0
LINE
  5
3B7
100
AcDbEntity
  8
RUNDUNGEN
100
AcDbLine
 62
7
  6
CONTINUOUS
 10
405.9809257763
 20
198.2129420609
 11
405.9809257763
 21
196.8915200562
  0
LINE
  5
3B8
100
AcDbEntity
  8
BEZUGSACHSEN
100
AcDbLine
 62
2
  6
CENTER
 10
421.2296631178
 20
235.1402573977
 11
421.2296631178
 21
232.1800483871
  0
LINE
  5
3B9
100
AcDbEntity
  8
BEZUGSACHSEN
100
AcDbLine
 62
2
  6
CENTER
 10
421.2296631178
 20
185.6427827147
 11
421.2296631178
 21
182.5676190087
  0
LINE
  5
3BA
100
AcDbEntity
  8
BEZUGSACHSEN
100
AcDbLine
 62
2
  6
CENTER
 10
421.2296631178
 20
185.6427827147
 11
421.2296631178
 21
188.6945314089
  0
LINE
  5
3BB
100
AcDbEntity
  8
BEZUGSACHSEN
100
AcDbLine
 62
2
  6
CENTER
 10
421.2296631178
 20
235.1402573977
 11
421.2296631178
 21
237.972809912
  0
LINE
  5
3BC
100
AcDbEntity
  8
BEZUGSACHSEN
100
AcDbLine
 62
2
  6
CENTER
 10
421.2296631178
 20
235.1402573977
 11
418.2857231063
 21
235.1402573977
  0
LINE
  5
3BD
100
AcDbEntity
  8
BEZUGSACHSEN
100
AcDbLine
 62
2
  6
CENTER
 10
371.7321884347
 20
235.1402573977
 11
368.8396511531
 21
235.1402573977
  0
LINE
  5
3BE
100
AcDbEntity
  8
BEZUGSACHSEN
100
AcDbLine
 62
2
  6
CENTER
 10
371.7321884347
 20
235.1402573977
 11
374.6348517354
 21
235.1402573977
  0
LINE
  5
3BF
100
AcDbEntity
  8
BEZUGSACHSEN
100
AcDbLine
 62
2
  6
CENTER
 10
421.2296631178
 20
235.1402573977
 11
423.9931176192
 21
235.1402573977
  0
LINE
  5
3C0
100
AcDbEntity
  8
0
100
AcDbLine
 62
7
  6
CONTINUOUS
 10
426.4809257763
 20
183.9340069456
 11
426.4809257763
 21
236.8490331668
  0
LINE
  5
3C1
100
AcDbEntity
  8
0
100
AcDbLine
 62
7
  6
CONTINUOUS
 10
422.9384388869
 20
240.3915200562
 11
370.0234126656
 21
240.3915200562
  0
ARC
  5
3C2
100
AcDbEntity
  8
BEZUGSACHSEN
100
AcDbCircle
 62
7
  6
CONTINUOUS
 10
208.9970338784
 20
149.8701257906
 40
30.8634385563
100
AcDbArc
 50
92.8265723395
 51
98.5380472696
  0
ARC
  5
3C3
100
AcDbEntity
  8
BEZUGSACHSEN
100
AcDbCircle
 62
7
  6
CONTINUOUS
 10
208.8326901382
 20
270.9128301907
 40
30.8633543027
100
AcDbArc
 50
272.8271726077
 51
278.5380574126
  0
ARC
  5
3C4
100
AcDbEntity
  8
BEZUGSACHSEN
100
AcDbCircle
 62
7
  6
CONTINUOUS
 10
208.9649956274
 20
270.5908929671
 40
30.540233668
100
AcDbArc
 50
261.4316989898
 51
267.202661063
  0
ARC
  5
3C5
100
AcDbEntity
  8
BEZUGSACHSEN
100
AcDbCircle
 62
7
  6
CONTINUOUS
 10
208.8650483716
 20
150.1950687556
 40
30.5372959338
100
AcDbArc
 50
81.4314891338
 51
87.2224492033
  0
ARC
  5
3C6
100
AcDbEntity
  8
BEZUGSACHSEN
100
AcDbCircle
 62
7
  6
CONTINUOUS
 10
208.9226434962
 20
269.9773898522
 40
29.9253972259
100
AcDbArc
 50
267.2263269957
 51
268.6023401446
  0
ARC
  5
3C7
100
AcDbEntity
  8
BEZUGSACHSEN
100
AcDbCircle
 62
7
  6
CONTINUOUS
 10
208.9071465221
 20
150.8062105022
 40
29.9248347293
100
AcDbArc
 50
87.2462555249
 51
88.6021580038
  0
ARC
  5
3C8
100
AcDbEntity
  8
BEZUGSACHSEN
100
AcDbCircle
 62
7
  6
CONTINUOUS
 10
208.9199609991
 20
150.8725090463
 40
29.8584895489
100
AcDbArc
 50
91.3971299
 51
92.6430991455
  0
ARC
  5
3C9
100
AcDbEntity
  8
BEZUGSACHSEN
100
AcDbCircle
 62
7
  6
CONTINUOUS
 10
208.9099520421
 20
269.9061911258
 40
29.8541455391
100
AcDbArc
 50
271.3971773328
 51
272.6245050963
  0
ARC
  5
3CA
100
AcDbEntity
  8
BEZUGSACHSEN
100
AcDbCircle
 62
7
  6
CONTINUOUS
 10
208.9149142764
 20
151.0931943293
 40
29.6377468251
100
AcDbArc
 50
88.6036361472
 51
91.3977785831
  0
ARC
  5
3CB
100
AcDbEntity
  8
BEZUGSACHSEN
100
AcDbCircle
 62
7
  6
CONTINUOUS
 10
208.9147777029
 20
269.6868939661
 40
29.634795919
100
AcDbArc
 50
268.6038440692
 51
271.3981882679
  0
ARC
  5
3CC
100
AcDbEntity
  8
BEZUGSACHSEN
100
AcDbCircle
 62
7
  6
CONTINUOUS
 10
208.9236152411
 20
269.590532506
 40
29.5381923907
100
AcDbArc
 50
272.6260669888
 51
272.7775271522
  0
ARC
  5
3CD
100
AcDbEntity
  8
BEZUGSACHSEN
100
AcDbCircle
 62
7
  6
CONTINUOUS
 10
208.9056422995
 20
151.2000610072
 40
29.5306257619
100
AcDbArc
 50
92.6446540397
 51
92.7767140062
  0
CIRCLE
  5
3CE
100
AcDbEntity
  8
BEZUGSACHSEN
100
AcDbCircle
 62
7
  6
CONTINUOUS
 10
208.9148584554
 20
210.3915200562
 40
4.5
  0
CIRCLE
  5
3CF
100
AcDbEntity
  8
BEZUGSACHSEN
100
AcDbCircle
 62
7
  6
CONTINUOUS
 10
188.0648584554
 20
199.8915200562
 40
4.0
  0
ARC
  5
3D0
100
AcDbEntity
  8
RUNDUNGEN
100
AcDbCircle
 62
7
  6
CONTINUOUS
 10
257.0648584554
 20
185.3915200562
 40
1.0
100
AcDbArc
 50
270.0
 51
360.0
  0
ARC
  5
3D1
100
AcDbEntity
  8
RUNDUNGEN
100
AcDbCircle
 62
7
  6
CONTINUOUS
 10
257.0648584554
 20
235.3915200562
 40
1.0
100
AcDbArc
 50
0.0
 51
90.0
  0
ARC
  5
3D2
100
AcDbEntity
  8
RUNDUNGEN
100
AcDbCircle
 62
7
  6
CONTINUOUS
 10
263.8648584554
 20
219.1915200562
 40
0.8
100
AcDbArc
 50
180.0
 51
270.0
  0
ARC
  5
3D3
100
AcDbEntity
  8
RUNDUNGEN
100
AcDbCircle
 62
7
  6
CONTINUOUS
 10
263.8648584554
 20
201.5915200562
 40
0.8
100
AcDbArc
 50
90.0
 51
180.0
  0
ARC
  5
3D4
100
AcDbEntity
  8
0
100
AcDbCircle
 62
2
  6
CONTINUOUS
 10
43.7561127115
 20
210.3915200562
 40
2.5
100
AcDbArc
 50
255.0
 51
195.0
  0
CIRCLE
  5
3D5
100
AcDbEntity
  8
BEZUGSACHSEN
100
AcDbCircle
 62
7
  6
CONTINUOUS
 10
43.7561127115
 20
210.3915200562
 40
2.1
  0
ARC
  5
3D6
100
AcDbEntity
  8
0
100
AcDbCircle
 62
2
  6
CONTINUOUS
 10
74.7561127115
 20
179.3915200562
 40
2.5
100
AcDbArc
 50
255.0
 51
195.0
  0
CIRCLE
  5
3D7
100
AcDbEntity
  8
BEZUGSACHSEN
100
AcDbCircle
 62
7
  6
CONTINUOUS
 10
74.7561127115
 20
179.3915200562
 40
2.1
  0
ARC
  5
3D8
100
AcDbEntity
  8
0
100
AcDbCircle
 62
7
  6
CONTINUOUS
 10
74.7561127115
 20
210.3915200562
 40
40.0
100
AcDbArc
 50
131.4096221093
 51
138.5903778907
  0
ARC
  5
3D9
100
AcDbEntity
  8
0
100
AcDbCircle
 62
7
  6
CONTINUOUS
 10
74.7561127115
 20
210.3915200562
 40
40.0
100
AcDbArc
 50
221.4096221093
 51
228.5903778907
  0
ARC
  5
3DA
100
AcDbEntity
  8
0
100
AcDbCircle
 62
7
  6
CONTINUOUS
 10
74.7561127115
 20
210.3915200562
 40
40.0
100
AcDbArc
 50
311.4096221093
 51
318.5903778907
  0
ARC
  5
3DB
100
AcDbEntity
  8
0
100
AcDbCircle
 62
7
  6
CONTINUOUS
 10
74.7561127115
 20
210.3915200562
 40
40.0
100
AcDbArc
 50
41.4096221093
 51
48.5903778907
  0
CIRCLE
  5
3DC
100
AcDbEntity
  8
0
100
AcDbCircle
 62
7
  6
CONTINUOUS
 10
74.7561127115
 20
210.3915200562
 40
35.0
  0
CIRCLE
  5
3DD
100
AcDbEntity
  8
BLATT2_3D_ANSICHT
100
AcDbCircle
 62
2
  6
CENTER
 10
74.7561127115
 20
210.3915200562
 40
31.0
  0
CIRCLE
  5
3DE
100
AcDbEntity
  8
RUNDUNGEN
100
AcDbCircle
 62
7
  6
CONTINUOUS
 10
74.7561127115
 20
210.3915200562
 40
26.0
  0
CIRCLE
  5
3DF
100
AcDbEntity
  8
RUNDUNGEN
100
AcDbCircle
 62
9
  6
CONTINUOUS
 10
74.7561127115
 20
210.3915200562
 40
25.0
  0
CIRCLE
  5
3E0
100
AcDbEntity
  8
0
100
AcDbCircle
 62
7
  6
CONTINUOUS
 10
74.7561127115
 20
210.3915200562
 40
17.0
  0
CIRCLE
  5
3E1
100
AcDbEntity
  8
0
100
AcDbCircle
 62
7
  6
CONTINUOUS
 10
74.7561127115
 20
210.3915200562
 40
15.0
  0
ARC
  5
3E2
100
AcDbEntity
  8
RUNDUNGEN
100
AcDbCircle
 62
9
  6
CONTINUOUS
 10
74.7561127115
 20
210.3915200562
 40
8.8
100
AcDbArc
 50
106.5477560654
 51
73.4522430406
  0
CIRCLE
  5
3E3
100
AcDbEntity
  8
FASEN
100
AcDbCircle
 62
7
  6
CONTINUOUS
 10
74.7561127115
 20
210.3915200562
 40
8.0
  0
CIRCLE
  5
3E4
100
AcDbEntity
  8
FASEN
100
AcDbCircle
 62
7
  6
CONTINUOUS
 10
74.7561127115
 20
210.3915200562
 40
7.5
  0
CIRCLE
  5
3E5
100
AcDbEntity
  8
BOHRUNGEN
100
AcDbCircle
 62
7
  6
CONTINUOUS
 10
74.7561127115
 20
210.3915200562
 40
4.05
  0
CIRCLE
  5
3E6
100
AcDbEntity
  8
BOHRUNGEN
100
AcDbCircle
 62
7
  6
CONTINUOUS
 10
74.7561127115
 20
210.3915200562
 40
2.65
  0
ARC
  5
3E7
100
AcDbEntity
  8
0
100
AcDbCircle
 62
2
  6
CONTINUOUS
 10
74.7561127115
 20
210.3915200562
 40
2.5
100
AcDbArc
 50
255.0
 51
195.0
  0
CIRCLE
  5
3E8
100
AcDbEntity
  8
BOHRUNGEN
100
AcDbCircle
 62
7
  6
CONTINUOUS
 10
74.7561127115
 20
210.3915200562
 40
2.15
  0
CIRCLE
  5
3E9
100
AcDbEntity
  8
BOHRUNGEN
100
AcDbCircle
 62
7
  6
CONTINUOUS
 10
74.7561127115
 20
210.3915200562
 40
2.1
  0
ARC
  5
3EA
100
AcDbEntity
  8
0
100
AcDbCircle
 62
2
  6
CONTINUOUS
 10
74.7561127115
 20
241.3915200562
 40
2.5
100
AcDbArc
 50
255.0
 51
195.0
  0
CIRCLE
  5
3EB
100
AcDbEntity
  8
BEZUGSACHSEN
100
AcDbCircle
 62
7
  6
CONTINUOUS
 10
74.7561127115
 20
241.3915200562
 40
2.1
  0
ARC
  5
3EC
100
AcDbEntity
  8
0
100
AcDbCircle
 62
2
  6
CONTINUOUS
 10
105.7561127115
 20
210.3915200562
 40
2.5
100
AcDbArc
 50
255.0
 51
195.0
  0
CIRCLE
  5
3ED
100
AcDbEntity
  8
BEZUGSACHSEN
100
AcDbCircle
 62
7
  6
CONTINUOUS
 10
105.7561127115
 20
210.3915200562
 40
2.1
  0
ARC
  5
3EE
100
AcDbEntity
  8
0
100
AcDbCircle
 62
2
  6
CONTINUOUS
 10
371.7321884347
 20
185.6427827147
 40
2.5
100
AcDbArc
 50
255.0
 51
195.0
  0
CIRCLE
  5
3EF
100
AcDbEntity
  8
BEZUGSACHSEN
100
AcDbCircle
 62
7
  6
CONTINUOUS
 10
371.7321884347
 20
185.6427827147
 40
2.1
  0
ARC
  5
3F0
100
AcDbEntity
  8
0
100
AcDbCircle
 62
2
  6
CONTINUOUS
 10
371.7321884347
 20
235.1402573977
 40
2.5
100
AcDbArc
 50
255.0
 51
195.0
  0
CIRCLE
  5
3F1
100
AcDbEntity
  8
BEZUGSACHSEN
100
AcDbCircle
 62
7
  6
CONTINUOUS
 10
371.7321884347
 20
235.1402573977
 40
2.1
  0
ARC
  5
3F2
100
AcDbEntity
  8
0
100
AcDbCircle
 62
2
  6
CONTINUOUS
 10
421.2296631178
 20
185.6427827147
 40
2.5
100
AcDbArc
 50
255.0
 51
195.0
  0
CIRCLE
  5
3F3
100
AcDbEntity
  8
BEZUGSACHSEN
100
AcDbCircle
 62
7
  6
CONTINUOUS
 10
421.2296631178
 20
185.6427827147
 40
2.1
  0
ARC
  5
3F4
100
AcDbEntity
  8
RUNDUNGEN
100
AcDbCircle
 62
7
  6
CONTINUOUS
 10
405.4809257763
 20
196.8915200562
 40
0.5
100
AcDbArc
 50
270.0
 51
360.0
  0
ARC
  5
3F5
100
AcDbEntity
  8
0
100
AcDbCircle
 62
7
  6
CONTINUOUS
 10
396.4809257763
 20
210.3915200562
 40
40.0
100
AcDbArc
 50
221.4096221093
 51
228.5903778907
  0
ARC
  5
3F6
100
AcDbEntity
  8
0
100
AcDbCircle
 62
7
  6
CONTINUOUS
 10
396.4809257763
 20
210.3915200562
 40
40.0
100
AcDbArc
 50
311.4096221093
 51
318.5903778907
  0
ARC
  5
3F7
100
AcDbEntity
  8
0
100
AcDbCircle
 62
7
  6
CONTINUOUS
 10
396.4809257763
 20
210.3915200562
 40
40.0
100
AcDbArc
 50
41.4096221093
 51
48.5903778907
  0
ARC
  5
3F8
100
AcDbEntity
  8
0
100
AcDbCircle
 62
7
  6
CONTINUOUS
 10
396.4809257763
 20
210.3915200562
 40
40.0
100
AcDbArc
 50
131.4096221093
 51
138.5903778907
  0
ARC
  5
3F9
100
AcDbEntity
  8
0
100
AcDbCircle
 62
7
  6
CONTINUOUS
 10
396.4809257763
 20
210.3915200562
 40
35.0
100
AcDbArc
 50
149.0918648719
 51
210.9081351281
  0
ARC
  5
3FA
100
AcDbEntity
  8
0
100
AcDbCircle
 62
7
  6
CONTINUOUS
 10
396.4809257763
 20
210.3915200562
 40
35.0
100
AcDbArc
 50
59.0918648719
 51
120.9081351281
  0
ARC
  5
3FB
100
AcDbEntity
  8
0
100
AcDbCircle
 62
7
  6
CONTINUOUS
 10
396.4809257763
 20
210.3915200562
 40
35.0
100
AcDbArc
 50
329.0918648719
 51
30.9081351281
  0
ARC
  5
3FC
100
AcDbEntity
  8
0
100
AcDbCircle
 62
7
  6
CONTINUOUS
 10
396.4809257763
 20
210.3915200562
 40
35.0
100
AcDbArc
 50
239.0918648719
 51
300.9081351281
  0
CIRCLE
  5
3FD
100
AcDbEntity
  8
BLATT1_ANSICHT_ABTRIEB
100
AcDbCircle
 62
2
  6
CENTER
 10
396.4809257763
 20
210.3915200562
 40
35.0
  0
CIRCLE
  5
3FE
100
AcDbEntity
  8
0
100
AcDbCircle
 62
7
  6
CONTINUOUS
 10
396.4809257763
 20
210.3915200562
 40
25.0
  0
CIRCLE
  5
3FF
100
AcDbEntity
  8
0
100
AcDbCircle
 62
7
  6
CONTINUOUS
 10
396.4809257763
 20
210.3915200562
 40
18.0
  0
CIRCLE
  5
400
100
AcDbEntity
  8
0
100
AcDbCircle
 62
7
  6
CONTINUOUS
 10
396.4809257763
 20
210.3915200562
 40
17.5
  0
CIRCLE
  5
401
100
AcDbEntity
  8
0
100
AcDbCircle
 62
9
  6
CONTINUOUS
 10
396.4809257763
 20
210.3915200562
 40
17.0
  0
ARC
  5
402
100
AcDbEntity
  8
0
100
AcDbCircle
 62
7
  6
CONTINUOUS
 10
396.4809257763
 20
210.3915200562
 40
15.5
100
AcDbArc
 50
272.7734594021
 51
267.2265405979
  0
ARC
  5
403
100
AcDbEntity
  8
0
100
AcDbCircle
 62
7
  6
CONTINUOUS
 10
396.4809257763
 20
210.3915200562
 40
9.5
100
AcDbArc
 50
265.4719369862
 51
274.5280630138
  0
CIRCLE
  5
404
100
AcDbEntity
  8
0
100
AcDbCircle
 62
7
  6
CONTINUOUS
 10
396.4809257763
 20
210.3915200562
 40
7.0
  0
ARC
  5
405
100
AcDbEntity
  8
0
100
AcDbCircle
 62
2
  6
CONTINUOUS
 10
421.2296631178
 20
235.1402573977
 40
2.5
100
AcDbArc
 50
255.0
 51
195.0
  0
CIRCLE
  5
406
100
AcDbEntity
  8
BEZUGSACHSEN
100
AcDbCircle
 62
7
  6
CONTINUOUS
 10
421.2296631178
 20
235.1402573977
 40
2.1
  0
SPLINE
  5
407
100
AcDbEntity
  8
BEZUGSACHSEN
100
AcDbSpline
 62
7
  6
CONTINUOUS
 70
0
 71
3
 72
23
 73
19
 74
0
 42
0.0000001
 43
0.0000001
 44
0.0000000001
 40
0.0
 40
0.0
 40
0.0
 40
0.0
 40
0.0012629929
 40
0.0050366058
 40
0.0112979813
 40
0.0200242975
 40
0.031192302
 40
0.0447628058
 40
0.0788757547
 40
0.1218873309
 40
0.1732600088
 40
0.2323757853
 40
0.2986076969
 40
0.3712967274
 40
0.4497819973
 40
0.6212289445
 40
0.8069340311
 40
1.0
 40
1.0
 40
1.0
 40
1.0
 10
264.0648584723
 20
218.3915200409
 30
0.0
 10
264.0653959945
 20
218.3924452073
 30
0.0
 10
264.0706398613
 20
218.3881372838
 30
0.0
 10
264.0786472346
 20
218.3881998105
 30
0.0
 10
264.0944691165
 20
218.3818397191
 30
0.0
 10
264.1153665766
 20
218.3760503774
 30
0.0
 10
264.1425892689
 20
218.3674896363
 30
0.0
 10
264.1902620895
 20
218.3531907949
 30
0.0
 10
264.2639850128
 20
218.3313438921
 30
0.0
 10
264.3686794734
 20
218.3015947373
 30
0.0
 10
264.4941962958
 20
218.2675407817
 30
0.0
 10
264.6392739167
 20
218.2305543834
 30
0.0
 10
264.8025493391
 20
218.1919243132
 30
0.0
 10
264.9826083872
 20
218.1531008667
 30
0.0
 10
265.2510274232
 20
218.1014817989
 30
0.0
 10
265.6160172
 20
218.0455201095
 30
0.0
 10
266.0803119154
 20
218.0012590744
 30
0.0
 10
266.4012967678
 20
217.990862133
 30
0.0
 10
266.5648584554
 20
217.990862133
 30
0.0
  0
SPLINE
  5
408
100
AcDbEntity
  8
BEZUGSACHSEN
100
AcDbSpline
 62
7
  6
CONTINUOUS
 70
0
 71
3
 72
23
 73
19
 74
0
 42
0.0000001
 43
0.0000001
 44
0.0000000001
 40
0.0
 40
0.0
 40
0.0
 40
0.0
 40
0.1930658499
 40
0.3787718245
 40
0.5502205052
 40
0.6287063653
 40
0.701395325
 40
0.7676268135
 40
0.8267421981
 40
0.8781145632
 40
0.9211259541
 40
0.9552386119
 40
0.9688090348
 40
0.9799769879
 40
0.9887030095
 40
0.9949639624
 40
0.9987371898
 40
1.0
 40
1.0
 40
1.0
 40
1.0
 10
286.5648584554
 20
217.990862133
 30
0.0
 10
286.7284200432
 20
217.990862133
 30
0.0
 10
287.0494055583
 20
218.0012589076
 30
0.0
 10
287.5137023605
 20
218.045520495
 30
0.0
 10
287.8786948029
 20
218.1014827985
 30
0.0
 10
288.1471156789
 20
218.1531023563
 30
0.0
 10
288.3271748357
 20
218.1919258232
 30
0.0
 10
288.4904493831
 20
218.230555958
 30
0.0
 10
288.6355262851
 20
218.2675424347
 30
0.0
 10
288.761041652
 20
218.3015956441
 30
0.0
 10
288.8657375504
 20
218.3313461815
 30
0.0
 10
288.9394550678
 20
218.3531895428
 30
0.0
 10
288.987135316
 20
218.367493253
 30
0.0
 10
289.0143410524
 20
218.3760437149
 30
0.0
 10
289.0352808403
 20
218.3818600345
 30
0.0
 10
289.051004151
 20
218.388157671
 30
0.0
 10
289.0591830849
 20
218.3882042264
 30
0.0
 10
289.0642474005
 20
218.3923982036
 30
0.0
 10
289.0648584532
 20
218.3915200541
 30
0.0
  0
ENDSEC
  0
SECTION
  2
OBJECTS
  0
DICTIONARY
  5
C
100
AcDbDictionary
280
0
281
1
  3
ACAD_GROUP
350
D
  3
ACAD_MLINESTYLE
350
17
  3
ACAD_LAYOUT
350
1A
  3
ACAD_PLOTSETTINGS
350
19
  3
ACAD_PLOTSTYLENAME
350
E
  0
DICTIONARY
  5
D
102
{ACAD_REACTORS
330
C
102
}
100
AcDbDictionary
280
0
281
1
  0
ACDBDICTIONARYWDFLT
  5
E
102
{ACAD_REACTORS
330
C
102
}
100
AcDbDictionary
281
1
  3
Normal
350
F
100
AcDbDictionaryWithDefault
340
F
  0
DICTIONARY
  5
17
102
{ACAD_REACTORS
330
C
102
}
100
AcDbDictionary
280
0
281
1
  3
Standard
350
18
  0
DICTIONARY
  5
19
102
{ACAD_REACTORS
330
C
102
}
100
AcDbDictionary
281
1
  0
DICTIONARY
  5
1A
102
{ACAD_REACTORS
330
C
102
}
100
AcDbDictionary
281
1
  3
Model
350
409
  3
Layout1
350
40A
  0
ACDBPLACEHOLDER
  5
F
102
{ACAD_REACTORS
330
E
102
}
  0
MLINESTYLE
  5
18
102
{ACAD_REACTORS
330
17
102
}
100
AcDbMlineStyle
  2
STANDARD
 70
0
  3

 62
256
 51
90.0
 52
90.0
 71
2
 49
0.5
 62
256
  6
BYLAYER
 49
-0.5
 62
256
  6
BYLAYER
  0
LAYOUT
  5
409
102
{ACAD_REACTORS
330
1A
102
}
100
AcDbPlotSettings
  1

  2
none_device
  4
ISO_A3_(420.00_x_297.00_MM)
  6

 40
0.0
 41
0.0
 42
0.0
 43
0.0
 44
420.0
 45
297.0
 46
0.0
 47
0.0
 48
0.0
 49
0.0
140
0.0
141
0.0
142
1.0
143
1.0
 70
1024
 72
1
 73
0
 74
0
  7

 75
0
147
1.0
148
0.0
149
0.0
100
AcDbLayout
  1
Model
 70
0
 71
0
 10
0.0
 20
0.0
 11
420.0
 21
297.0
 12
0.0
 22
0.0
 32
0.0
 14
0.0
 24
0.0
 34
0.0
 15
0.0
 25
0.0
 35
0.0
146
0.0
 13
0.0
 23
0.0
 33
0.0
 16
1.0
 26
0.0
 36
0.0
 17
0.0
 27
1.0
 37
0.0
 76
0
330
210
345
0
346
0
  0
LAYOUT
  5
40A
102
{ACAD_REACTORS
330
1A
102
}
100
AcDbPlotSettings
  1

  2
none_device
  4
ISO_A3_(420.00_x_297.00_MM)
  6

 40
0.0
 41
0.0
 42
0.0
 43
0.0
 44
420.0
 45
297.0
 46
0.0
 47
0.0
 48
0.0
 49
0.0
140
0.0
141
0.0
142
1.0
143
1.0
 70
0
 72
1
 73
0
 74
0
  7

 75
0
147
1.0
148
0.0
149
0.0
100
AcDbLayout
  1
Layout1
 70
0
 71
1
 10
0.0
 20
0.0
 11
420.0
 21
297.0
 12
0.0
 22
0.0
 32
0.0
 14
0.0
 24
0.0
 34
0.0
 15
0.0
 25
0.0
 35
0.0
146
0.0
 13
0.0
 23
0.0
 33
0.0
 16
1.0
 26
0.0
 36
0.0
 17
0.0
 27
1.0
 37
0.0
 76
0
330
211
345
0
346
0
  0
ENDSEC
  0
EOF
